  0
SECTION
  2
HEADER
  9
$ACADVER
  1
AC1014
  9
$ACADMAINTVER
 70
     9
  9
$DWGCODEPAGE
  3
ANSI_1252
  9
$INSBASE
 10
0.0
 20
0.0
 30
0.0
  9
$EXTMIN
 10
0.0
 20
-6.349999999999999
 30
0.0
  9
$EXTMAX
 10
1079.5
 20
850.9
 30
0.0
  9
$LIMMIN
 10
0.0
 20
0.0
  9
$LIMMAX
 10
1118.0
 20
864.0
  9
$ORTHOMODE
 70
     1
  9
$REGENMODE
 70
     1
  9
$FILLMODE
 70
     1
  9
$QTEXTMODE
 70
     0
  9
$MIRRTEXT
 70
     1
  9
$DRAGMODE
 70
     2
  9
$LTSCALE
 40
1.0
  9
$OSMODE
 70
    37
  9
$ATTMODE
 70
     1
  9
$TEXTSIZE
 40
5.0
  9
$TRACEWID
 40
1.0
  9
$TEXTSTYLE
  7
STANDARD
  9
$CLAYER
  8
CALLOUTS
  9
$CELTYPE
  6
BYLAYER
  9
$CECOLOR
 62
   256
  9
$CELTSCALE
 40
1.0
  9
$DELOBJ
 70
     1
  9
$DISPSILH
 70
     0
  9
$DIMSCALE
 40
1.0
  9
$DIMASZ
 40
5.0
  9
$DIMEXO
 40
0.625
  9
$DIMDLI
 40
3.75
  9
$DIMRND
 40
0.0
  9
$DIMDLE
 40
0.0
  9
$DIMEXE
 40
1.25
  9
$DIMTP
 40
0.0
  9
$DIMTM
 40
0.0
  9
$DIMTXT
 40
5.0
  9
$DIMCEN
 40
2.5
  9
$DIMTSZ
 40
0.0
  9
$DIMTOL
 70
     0
  9
$DIMLIM
 70
     0
  9
$DIMTIH
 70
     0
  9
$DIMTOH
 70
     0
  9
$DIMSE1
 70
     0
  9
$DIMSE2
 70
     0
  9
$DIMTAD
 70
     1
  9
$DIMZIN
 70
     8
  9
$DIMBLK
  1

  9
$DIMASO
 70
     1
  9
$DIMSHO
 70
     1
  9
$DIMPOST
  1
mm
  9
$DIMAPOST
  1
"
  9
$DIMALT
 70
     1
  9
$DIMALTD
 70
     4
  9
$DIMALTF
 40
0.0394
  9
$DIMLFAC
 40
1.0
  9
$DIMTOFL
 70
     1
  9
$DIMTVP
 40
0.0
  9
$DIMTIX
 70
     0
  9
$DIMSOXD
 70
     0
  9
$DIMSAH
 70
     0
  9
$DIMBLK1
  1

  9
$DIMBLK2
  1

  9
$DIMSTYLE
  2
STANDARD
  9
$DIMCLRD
 70
     0
  9
$DIMCLRE
 70
     0
  9
$DIMCLRT
 70
     0
  9
$DIMTFAC
 40
1.0
  9
$DIMGAP
 40
0.625
  9
$DIMJUST
 70
     0
  9
$DIMSD1
 70
     0
  9
$DIMSD2
 70
     0
  9
$DIMTOLJ
 70
     1
  9
$DIMTZIN
 70
     0
  9
$DIMALTZ
 70
     0
  9
$DIMALTTZ
 70
     0
  9
$DIMFIT
 70
     3
  9
$DIMUPT
 70
     0
  9
$DIMUNIT
 70
     2
  9
$DIMDEC
 70
     2
  9
$DIMTDEC
 70
     4
  9
$DIMALTU
 70
     8
  9
$DIMALTTD
 70
     4
  9
$DIMTXSTY
  7
STANDARD
  9
$DIMAUNIT
 70
     0
  9
$LUNITS
 70
     2
  9
$LUPREC
 70
     4
  9
$SKETCHINC
 40
1.0
  9
$FILLETRAD
 40
0.0
  9
$AUNITS
 70
     0
  9
$AUPREC
 70
     0
  9
$MENU
  1
.
  9
$ELEVATION
 40
0.0
  9
$PELEVATION
 40
0.0
  9
$THICKNESS
 40
0.0
  9
$LIMCHECK
 70
     0
  9
$BLIPMODE
 70
     0
  9
$CHAMFERA
 40
10.0
  9
$CHAMFERB
 40
10.0
  9
$CHAMFERC
 40
20.0
  9
$CHAMFERD
 40
0.0
  9
$SKPOLY
 70
     0
  9
$TDCREATE
 40
2451015.802442361
  9
$TDUPDATE
 40
2452173.445030926
  9
$TDINDWG
 40
0.0324192130
  9
$TDUSRTIMER
 40
0.0324192130
  9
$USRTIMER
 70
     1
  9
$ANGBASE
 50
0.0
  9
$ANGDIR
 70
     0
  9
$PDMODE
 70
     0
  9
$PDSIZE
 40
0.0
  9
$PLINEWID
 40
0.0
  9
$COORDS
 70
     0
  9
$SPLFRAME
 70
     0
  9
$SPLINETYPE
 70
     6
  9
$SPLINESEGS
 70
     8
  9
$ATTDIA
 70
     0
  9
$ATTREQ
 70
     1
  9
$HANDLING
 70
  4097
  9
$HANDSEED
  5
8AE
  9
$SURFTAB1
 70
     6
  9
$SURFTAB2
 70
     6
  9
$SURFTYPE
 70
     6
  9
$SURFU
 70
     6
  9
$SURFV
 70
     6
  9
$UCSNAME
  2

  9
$UCSORG
 10
0.0
 20
0.0
 30
0.0
  9
$UCSXDIR
 10
1.0
 20
0.0
 30
0.0
  9
$UCSYDIR
 10
0.0
 20
1.0
 30
0.0
  9
$PUCSNAME
  2

  9
$PUCSORG
 10
0.0
 20
0.0
 30
0.0
  9
$PUCSXDIR
 10
1.0
 20
0.0
 30
0.0
  9
$PUCSYDIR
 10
0.0
 20
1.0
 30
0.0
  9
$USERI1
 70
     0
  9
$USERI2
 70
     0
  9
$USERI3
 70
     0
  9
$USERI4
 70
     0
  9
$USERI5
 70
     0
  9
$USERR1
 40
0.0
  9
$USERR2
 40
0.0
  9
$USERR3
 40
0.0
  9
$USERR4
 40
0.0
  9
$USERR5
 40
0.0
  9
$WORLDVIEW
 70
     1
  9
$SHADEDGE
 70
     3
  9
$SHADEDIF
 70
    70
  9
$TILEMODE
 70
     1
  9
$MAXACTVP
 70
    48
  9
$PINSBASE
 10
0.0
 20
0.0
 30
0.0
  9
$PLIMCHECK
 70
     0
  9
$PEXTMIN
 10
-0.0128164049386896
 20
-6.353667528780306
 30
-0.0015258207003583
  9
$PEXTMAX
 10
1079.531251745684
 20
850.9156965267793
 30
0.0000000349246037
  9
$PLIMMIN
 10
0.0
 20
0.0
  9
$PLIMMAX
 10
420.0
 20
297.0
  9
$UNITMODE
 70
     0
  9
$VISRETAIN
 70
     1
  9
$PLINEGEN
 70
     0
  9
$PSLTSCALE
 70
     1
  9
$TREEDEPTH
 70
  3020
  9
$PICKSTYLE
 70
     1
  9
$CMLSTYLE
  2
STANDARD
  9
$CMLJUST
 70
     0
  9
$CMLSCALE
 40
20.0
  9
$PROXYGRAPHICS
 70
     1
  9
$MEASUREMENT
 70
     1
  0
ENDSEC
  0
SECTION
  2
CLASSES
  0
CLASS
  1
LWPOLYLINE
  2
AcDbPolyline
  3
AutoCAD 2000
 90
        0
280
     0
281
     1
  0
CLASS
  1
HATCH
  2
AcDbHatch
  3
AutoCAD 2000
 90
        0
280
     0
281
     1
  0
CLASS
  1
ACDBDICTIONARYWDFLT
  2
AcDbDictionaryWithDefault
  3
AutoCAD 2000
 90
        0
280
     0
281
     0
  0
CLASS
  1
ACDBPLACEHOLDER
  2
AcDbPlaceHolder
  3
AutoCAD 2000
 90
        0
280
     0
281
     0
  0
CLASS
  1
LAYOUT
  2
AcDbLayout
  3
AutoCAD 2000
 90
        0
280
     0
281
     0
  0
CLASS
  1
LONG_TRANSACTION
  2
AcDbLongTransaction
  3
AutoCAD 2000
 90
        0
280
     0
281
     0
  0
CLASS
  1
LWPOLYLINE
  2
AcDbPolyline
  3
AutoCAD 2000
 90
        0
280
     0
281
     1
  0
CLASS
  1
HATCH
  2
AcDbHatch
  3
AutoCAD 2000
 90
        0
280
     0
281
     1
  0
CLASS
  1
XRECORD
  2
AcDbXrecord
  3
AutoCAD 2000
 90
        0
280
     0
281
     0
  0
ENDSEC
  0
SECTION
  2
TABLES
  0
TABLE
  2
VPORT
  5
8
330
0
100
AcDbSymbolTable
 70
     3
  0
VPORT
  5
87B
330
8
100
AcDbSymbolTableRecord
100
AcDbViewportTableRecord
  2
*ACTIVE
 70
     0
 10
0.0
 20
0.0
 11
1.0
 21
1.0
 12
582.1880113477312
 22
428.8117205261448
 13
0.0
 23
0.0
 14
10.0
 24
10.0
 15
10.0
 25
10.0
 16
0.0
 26
0.0
 36
1.0
 17
0.0
 27
0.0
 37
0.0
 40
884.7388950036764
 41
1.836842105263157
 42
50.0
 43
0.0
 44
0.0
 50
0.0
 51
0.0
 71
     0
 72
   100
 73
     1
 74
     1
 75
     0
 76
     0
 77
     0
 78
     0
  0
ENDTAB
  0
TABLE
  2
LTYPE
  5
5
330
0
100
AcDbSymbolTable
 70
     4
  0
LTYPE
  5
12
330
5
100
AcDbSymbolTableRecord
100
AcDbLinetypeTableRecord
  2
BYBLOCK
 70
     0
  3

 72
    65
 73
     0
 40
0.0
  0
LTYPE
  5
13
330
5
100
AcDbSymbolTableRecord
100
AcDbLinetypeTableRecord
  2
BYLAYER
 70
     0
  3

 72
    65
 73
     0
 40
0.0
  0
LTYPE
  5
14
330
5
100
AcDbSymbolTableRecord
100
AcDbLinetypeTableRecord
  2
CONTINUOUS
 70
     0
  3
Solid line
 72
    65
 73
     0
 40
0.0
  0
LTYPE
  5
205
330
5
100
AcDbSymbolTableRecord
100
AcDbLinetypeTableRecord
  2
HIDDEN
 70
     0
  3
Hidden __ __ __ __ __ __ __ __ __ __ __ __ __ _
 72
    65
 73
     2
 40
9.524999999999998
 49
6.349999999999999
 74
     0
 49
-3.174999999999999
 74
     0
  0
LTYPE
  5
2F5
330
5
100
AcDbSymbolTableRecord
100
AcDbLinetypeTableRecord
  2
PHANTOM
 70
     0
  3
______  __  __  ______  __  __  ______  __  __ 
 72
    65
 73
     6
 40
2.5
 49
1.25
 74
     0
 49
-0.25
 74
     0
 49
0.25
 74
     0
 49
-0.25
 74
     0
 49
0.25
 74
     0
 49
-0.25
 74
     0
  0
LTYPE
  5
72B
330
5
100
AcDbSymbolTableRecord
100
AcDbLinetypeTableRecord
  2
INSERT_AREA
 70
     0
  3
Insert area ---- Insert Area ---- Insert Area -
 72
    65
 73
     3
 40
54.08
 49
25.0
 74
     0
 49
-2.08
 74
     2
 75
     0
340
F
 46
2.54
 50
0.0
 44
0.0
 45
-1.5
  9
INSERT AREA
 49
-27.0
 74
     0
  0
ENDTAB
  0
TABLE
  2
LAYER
  5
2
330
0
100
AcDbSymbolTable
 70
    10
  0
LAYER
  5
E
330
2
100
AcDbSymbolTableRecord
100
AcDbLayerTableRecord
  2
0
 70
     0
 62
     7
  6
CONTINUOUS
  0
LAYER
  5
3C
330
2
100
AcDbSymbolTableRecord
100
AcDbLayerTableRecord
  2
CENTER
 70
     0
 62
     5
  6
CONTINUOUS
  0
LAYER
  5
3D
330
2
100
AcDbSymbolTableRecord
100
AcDbLayerTableRecord
  2
DIM
 70
     0
 62
     7
  6
CONTINUOUS
  0
LAYER
  5
3E
330
2
100
AcDbSymbolTableRecord
100
AcDbLayerTableRecord
  2
PART
 70
     0
 62
     7
  6
CONTINUOUS
  0
LAYER
  5
3F
330
2
100
AcDbSymbolTableRecord
100
AcDbLayerTableRecord
  2
DEFPOINTS
 70
     0
 62
     7
  6
CONTINUOUS
  0
LAYER
  5
206
330
2
100
AcDbSymbolTableRecord
100
AcDbLayerTableRecord
  2
HIDEN
 70
     0
 62
     7
  6
HIDDEN
  0
LAYER
  5
2F6
330
2
100
AcDbSymbolTableRecord
100
AcDbLayerTableRecord
  2
TEXT
 70
     0
 62
     5
  6
CONTINUOUS
  0
LAYER
  5
2F7
330
2
100
AcDbSymbolTableRecord
100
AcDbLayerTableRecord
  2
BORDER
 70
     0
 62
     6
  6
CONTINUOUS
  0
LAYER
  5
2F8
330
2
100
AcDbSymbolTableRecord
100
AcDbLayerTableRecord
  2
LOGO
 70
     0
 62
     7
  6
CONTINUOUS
  0
LAYER
  5
6D2
330
2
100
AcDbSymbolTableRecord
100
AcDbLayerTableRecord
  2
CALLOUTS
 70
     0
 62
     1
  6
CONTINUOUS
  0
ENDTAB
  0
TABLE
  2
STYLE
  5
3
330
0
100
AcDbSymbolTable
 70
     4
  0
STYLE
  5
F
330
3
100
AcDbSymbolTableRecord
100
AcDbTextStyleTableRecord
  2
STANDARD
 70
     0
 40
0.0
 41
1.0
 50
0.0
 71
     0
 42
5.0
  3
txt
  4

  0
STYLE
  5
2F9
330
3
100
AcDbSymbolTableRecord
100
AcDbTextStyleTableRecord
  2
DIM
 70
     0
 40
0.0
 41
1.0
 50
0.0
 71
     0
 42
0.188
  3
E:\r13\com\fonts\Romans.shx
  4

  0
STYLE
  5
2FA
330
3
100
AcDbSymbolTableRecord
100
AcDbTextStyleTableRecord
  2
TITLE
 70
     0
 40
0.0
 41
1.0
 50
25.0
 71
     0
 42
0.2
  3
E:\r13\com\fonts\Romant.shx
  4

  0
STYLE
  5
2FC
330
3
100
AcDbSymbolTableRecord
100
AcDbTextStyleTableRecord
  2
LOGO2
 70
     0
 40
0.0
 41
1.0
 50
18.0
 71
     0
 42
0.188
  3
TIMESBI.TTF
  4

1001
ACAD
1000
Times New Roman
1071
 50331666
  0
ENDTAB
  0
TABLE
  2
VIEW
  5
6
330
0
100
AcDbSymbolTable
 70
     0
  0
ENDTAB
  0
TABLE
  2
UCS
  5
7
330
0
100
AcDbSymbolTable
 70
     0
  0
ENDTAB
  0
TABLE
  2
APPID
  5
9
330
0
100
AcDbSymbolTable
 70
     1
  0
APPID
  5
10
330
9
100
AcDbSymbolTableRecord
100
AcDbRegAppTableRecord
  2
ACAD
 70
     0
  0
ENDTAB
  0
TABLE
  2
DIMSTYLE
  5
A
330
0
100
AcDbSymbolTable
 70
     1
  0
DIMSTYLE
105
1D
102
{ACAD_REACTORS
330
3FD
330
400
330
409
330
40A
330
499
330
49C
330
545
330
54B
330
55B
330
565
330
5C9
330
5CA
330
5D1
330
5D2
330
5D3
330
5D4
330
5DD
330
5DE
330
79E
330
79F
330
7A2
330
7A8
330
80C
330
80F
102
}
330
A
100
AcDbSymbolTableRecord
100
AcDbDimStyleTableRecord
  2
STANDARD
 70
     0
  3

  4

  5

  6

  7

 40
1.0
 41
0.18
 42
0.0625
 43
0.38
 44
0.18
 45
0.0
 46
0.0
 47
0.0
 48
0.0
140
0.18
141
0.09
142
0.0
143
25.4
144
1.0
145
0.0
146
1.0
147
0.09
 71
     0
 72
     0
 73
     1
 74
     1
 75
     0
 76
     0
 77
     0
 78
     0
170
     0
171
     2
172
     0
173
     0
174
     0
175
     0
176
     0
177
     0
178
     0
270
     2
271
     4
272
     4
273
     2
274
     2
340
F
275
     0
280
     0
281
     0
282
     0
283
     1
284
     0
285
     0
286
     0
287
     3
288
     0
  0
ENDTAB
  0
TABLE
  2
BLOCK_RECORD
  5
1
330
0
100
AcDbSymbolTable
 70
    27
  0
BLOCK_RECORD
  5
18
102
{ACAD_XDICTIONARY
360
89E
102
}
330
1
100
AcDbSymbolTableRecord
100
AcDbBlockTableRecord
  2
*MODEL_SPACE
  0
BLOCK_RECORD
  5
15
102
{ACAD_XDICTIONARY
360
89C
102
}
330
1
100
AcDbSymbolTableRecord
100
AcDbBlockTableRecord
  2
*PAPER_SPACE
  0
BLOCK_RECORD
  5
2D1
330
1
100
AcDbSymbolTableRecord
100
AcDbBlockTableRecord
  2
LOGO
  0
BLOCK_RECORD
  5
439
330
1
100
AcDbSymbolTableRecord
100
AcDbBlockTableRecord
  2
*D1
  0
BLOCK_RECORD
  5
445
330
1
100
AcDbSymbolTableRecord
100
AcDbBlockTableRecord
  2
*D2
  0
BLOCK_RECORD
  5
451
330
1
100
AcDbSymbolTableRecord
100
AcDbBlockTableRecord
  2
*D3
  0
BLOCK_RECORD
  5
45E
330
1
100
AcDbSymbolTableRecord
100
AcDbBlockTableRecord
  2
*D4
  0
BLOCK_RECORD
  5
517
330
1
100
AcDbSymbolTableRecord
100
AcDbBlockTableRecord
  2
*D5
  0
BLOCK_RECORD
  5
523
330
1
100
AcDbSymbolTableRecord
100
AcDbBlockTableRecord
  2
*D6
  0
BLOCK_RECORD
  5
56D
330
1
100
AcDbSymbolTableRecord
100
AcDbBlockTableRecord
  2
*D7
  0
BLOCK_RECORD
  5
579
330
1
100
AcDbSymbolTableRecord
100
AcDbBlockTableRecord
  2
*D8
  0
BLOCK_RECORD
  5
585
330
1
100
AcDbSymbolTableRecord
100
AcDbBlockTableRecord
  2
*D9
  0
BLOCK_RECORD
  5
591
330
1
100
AcDbSymbolTableRecord
100
AcDbBlockTableRecord
  2
*D10
  0
BLOCK_RECORD
  5
60C
330
1
100
AcDbSymbolTableRecord
100
AcDbBlockTableRecord
  2
*D11
  0
BLOCK_RECORD
  5
618
330
1
100
AcDbSymbolTableRecord
100
AcDbBlockTableRecord
  2
*D12
  0
BLOCK_RECORD
  5
629
330
1
100
AcDbSymbolTableRecord
100
AcDbBlockTableRecord
  2
*D13
  0
BLOCK_RECORD
  5
635
330
1
100
AcDbSymbolTableRecord
100
AcDbBlockTableRecord
  2
*D14
  0
BLOCK_RECORD
  5
641
330
1
100
AcDbSymbolTableRecord
100
AcDbBlockTableRecord
  2
*D15
  0
BLOCK_RECORD
  5
64D
330
1
100
AcDbSymbolTableRecord
100
AcDbBlockTableRecord
  2
*D16
  0
BLOCK_RECORD
  5
659
330
1
100
AcDbSymbolTableRecord
100
AcDbBlockTableRecord
  2
*D17
  0
BLOCK_RECORD
  5
666
330
1
100
AcDbSymbolTableRecord
100
AcDbBlockTableRecord
  2
*D18
  0
BLOCK_RECORD
  5
76D
330
1
100
AcDbSymbolTableRecord
100
AcDbBlockTableRecord
  2
*D19
  0
BLOCK_RECORD
  5
779
330
1
100
AcDbSymbolTableRecord
100
AcDbBlockTableRecord
  2
*D20
  0
BLOCK_RECORD
  5
785
330
1
100
AcDbSymbolTableRecord
100
AcDbBlockTableRecord
  2
*D21
  0
BLOCK_RECORD
  5
791
330
1
100
AcDbSymbolTableRecord
100
AcDbBlockTableRecord
  2
*D22
  0
BLOCK_RECORD
  5
79D
330
1
100
AcDbSymbolTableRecord
100
AcDbBlockTableRecord
  2
A$C28B57436
  0
BLOCK_RECORD
  5
7F2
330
1
100
AcDbSymbolTableRecord
100
AcDbBlockTableRecord
  2
*D24
  0
BLOCK_RECORD
  5
7FE
330
1
100
AcDbSymbolTableRecord
100
AcDbBlockTableRecord
  2
*D25
  0
BLOCK_RECORD
  5
80B
330
1
100
AcDbSymbolTableRecord
100
AcDbBlockTableRecord
  2
A$C7E4B782B
  0
ENDTAB
  0
ENDSEC
  0
SECTION
  2
BLOCKS
  0
BLOCK
  5
19
330
18
100
AcDbEntity
  8
0
100
AcDbBlockBegin
  2
*MODEL_SPACE
 70
     0
 10
0.0
 20
0.0
 30
0.0
  3
*MODEL_SPACE
  1

  0
ENDBLK
  5
1A
330
18
100
AcDbEntity
  8
0
100
AcDbBlockEnd
  0
BLOCK
  5
16
330
15
100
AcDbEntity
 67
     1
  8
0
100
AcDbBlockBegin
  2
*PAPER_SPACE
 70
     0
 10
0.0
 20
0.0
 30
0.0
  3
*PAPER_SPACE
  1

  0
ENDBLK
  5
17
330
15
100
AcDbEntity
 67
     1
  8
0
100
AcDbBlockEnd
  0
BLOCK
  5
2F2
330
2D1
100
AcDbEntity
  8
0
100
AcDbBlockBegin
  2
LOGO
 70
     0
 10
0.0
 20
0.0
 30
0.0
  3
LOGO
  1

  0
LWPOLYLINE
  5
2D2
102
{ACAD_REACTORS
330
2F1
102
}
330
2D1
100
AcDbEntity
  8
0
100
AcDbPolyline
 90
        4
 70
     1
 43
0.0
 10
4.587596458463856
 20
3.503906245579852
 10
5.712596458463856
 20
3.503906245579852
 10
5.712596458463856
 20
4.253906245579852
 10
4.587596458463856
 20
4.253906245579852
  0
LWPOLYLINE
  5
2D3
102
{ACAD_REACTORS
330
2F1
102
}
330
2D1
100
AcDbEntity
  8
0
100
AcDbPolyline
 90
        8
 70
     1
 43
0.0
 10
4.664596458463856
 20
3.535906245579851
 10
5.635596458463857
 20
3.535906245579853
 42
0.4142135623730951
 10
5.680596458463857
 20
3.580906245579853
 10
5.680596458463856
 20
4.176906245579851
 42
0.4142135623730946
 10
5.635596458463856
 20
4.221906245579851
 10
4.664596458463856
 20
4.221906245579853
 42
0.4142135623730953
 10
4.619596458463856
 20
4.176906245579853
 10
4.619596458463856
 20
3.580906245579851
 42
0.4142135623730956
  0
LWPOLYLINE
  5
2D4
102
{ACAD_REACTORS
330
2F0
330
2F1
102
}
330
2D1
100
AcDbEntity
  8
0
100
AcDbPolyline
 90
        8
 70
     1
 43
0.0
 10
4.683596458463856
 20
3.567906245579851
 10
5.616596458463857
 20
3.567906245579852
 42
0.4142135623730956
 10
5.648596458463857
 20
3.599906245579852
 10
5.648596458463854
 20
4.157906245579851
 42
0.414213562373094
 10
5.616596458463854
 20
4.189906245579851
 10
4.683596458463856
 20
4.189906245579852
 42
0.414213562373095
 10
4.651596458463856
 20
4.157906245579852
 10
4.651596458463856
 20
3.599906245579851
 42
0.4142135623730959
  0
LINE
  5
2D5
102
{ACAD_REACTORS
330
2F0
330
2F1
102
}
330
2D1
100
AcDbEntity
  8
0
100
AcDbLine
 10
5.145860400733218
 20
4.142608650860012
 30
0.0
 11
4.689435093539124
 21
4.142608650860012
 31
0.0
  0
LINE
  5
2D6
102
{ACAD_REACTORS
330
2F0
330
2F1
102
}
330
2D1
100
AcDbEntity
  8
0
100
AcDbLine
 10
4.689435093539124
 20
4.142608650860012
 30
0.0
 11
4.689435093539124
 21
3.611541742795647
 31
0.0
  0
LINE
  5
2D7
102
{ACAD_REACTORS
330
2F0
330
2F1
102
}
330
2D1
100
AcDbEntity
  8
0
100
AcDbLine
 10
4.689435093539124
 20
3.611541742795647
 30
0.0
 11
4.927459302890211
 21
3.611541742795647
 31
0.0
  0
LINE
  5
2D8
102
{ACAD_REACTORS
330
2F0
330
2F1
102
}
330
2D1
100
AcDbEntity
  8
0
100
AcDbLine
 10
5.145860400733219
 20
4.142608650860012
 30
0.0
 11
5.053338526403972
 21
4.012608650860013
 31
0.0
  0
LINE
  5
2D9
102
{ACAD_REACTORS
330
2F0
330
2F1
102
}
330
2D1
100
AcDbEntity
  8
0
100
AcDbLine
 10
4.778435093539123
 20
4.012608650860012
 30
0.0
 11
4.778435093539123
 21
3.942075196827829
 31
0.0
  0
LINE
  5
2DA
102
{ACAD_REACTORS
330
2F0
330
2F1
102
}
330
2D1
100
AcDbEntity
  8
0
100
AcDbLine
 10
5.053338526403972
 20
4.012608650860013
 30
0.0
 11
4.778435093539123
 21
4.012608650860012
 31
0.0
  0
LINE
  5
2DB
102
{ACAD_REACTORS
330
2F0
330
2F1
102
}
330
2D1
100
AcDbEntity
  8
0
100
AcDbLine
 10
4.778435093539123
 20
3.741541742795648
 30
0.0
 11
4.909514601493806
 21
3.741541742795648
 31
0.0
  0
LINE
  5
2DC
102
{ACAD_REACTORS
330
2F0
330
2F1
102
}
330
2D1
100
AcDbEntity
  8
0
100
AcDbLine
 10
4.778435093539123
 20
3.942075196827829
 30
0.0
 11
5.003139392788791
 21
3.942075196827829
 31
0.0
  0
LINE
  5
2DD
102
{ACAD_REACTORS
330
2F0
330
2F1
102
}
330
2D1
100
AcDbEntity
  8
0
100
AcDbLine
 10
4.778435093539123
 20
3.812075196827829
 30
0.0
 11
4.910617518459541
 21
3.812075196827829
 31
0.0
  0
LINE
  5
2DE
102
{ACAD_REACTORS
330
2F0
330
2F1
102
}
330
2D1
100
AcDbEntity
  8
0
100
AcDbLine
 10
4.778435093539122
 20
3.81207519682783
 30
0.0
 11
4.778435093539123
 21
3.741541742795648
 31
0.0
  0
LINE
  5
2DF
102
{ACAD_REACTORS
330
2F0
330
2F1
102
}
330
2D1
100
AcDbEntity
  8
0
100
AcDbLine
 10
5.003139392788791
 20
3.942075196827829
 30
0.0
 11
4.910617518459542
 21
3.812075196827829
 31
0.0
  0
LINE
  5
2E0
102
{ACAD_REACTORS
330
2F0
330
2F1
102
}
330
2D1
100
AcDbEntity
  8
0
100
AcDbLine
 10
5.194956617382664
 20
4.142608650860012
 30
0.0
 11
4.909514601493807
 21
3.741541742795648
 31
0.0
  0
LINE
  5
2E1
102
{ACAD_REACTORS
330
2F0
330
2F1
102
}
330
2D1
100
AcDbEntity
  8
0
100
AcDbLine
 10
5.194956617382663
 20
4.142608650860011
 30
0.0
 11
5.398281964409954
 21
4.142608650860012
 31
0.0
  0
LINE
  5
2E2
102
{ACAD_REACTORS
330
2F0
330
2F1
102
}
330
2D1
100
AcDbEntity
  8
0
100
AcDbLine
 10
5.268281964409955
 20
4.09042250822303
 30
0.0
 11
4.927459302890211
 21
3.611541742795648
 31
0.0
  0
LINE
  5
2E3
102
{ACAD_REACTORS
330
2F0
330
2F1
102
}
330
2D1
100
AcDbEntity
  8
0
100
AcDbLine
 10
5.268281964409955
 20
4.09042250822303
 30
0.0
 11
5.268281964409955
 21
3.827728271556761
 31
0.0
  0
LINE
  5
2E4
102
{ACAD_REACTORS
330
2F0
330
2F1
102
}
330
2D1
100
AcDbEntity
  8
0
100
AcDbLine
 10
5.124279933288999
 20
3.827728271556761
 30
0.0
 11
5.268281964409955
 21
3.827728271556761
 31
0.0
  0
LINE
  5
2E5
102
{ACAD_REACTORS
330
2F0
330
2F1
102
}
330
2D1
100
AcDbEntity
  8
0
100
AcDbLine
 10
5.051826944553353
 20
3.725926523549409
 30
0.0
 11
5.268281964409955
 21
3.72592652354941
 31
0.0
  0
LINE
  5
2E6
102
{ACAD_REACTORS
330
2F0
330
2F1
102
}
330
2D1
100
AcDbEntity
  8
0
100
AcDbLine
 10
5.124279933288998
 20
3.827728271556761
 30
0.0
 11
5.051826944553352
 21
3.725926523549409
 31
0.0
  0
LINE
  5
2E7
102
{ACAD_REACTORS
330
2F0
330
2F1
102
}
330
2D1
100
AcDbEntity
  8
0
100
AcDbLine
 10
5.268281964409956
 20
3.72592652354941
 30
0.0
 11
5.268281964409955
 21
3.611541742795647
 31
0.0
  0
LINE
  5
2E8
102
{ACAD_REACTORS
330
2F0
330
2F1
102
}
330
2D1
100
AcDbEntity
  8
0
100
AcDbLine
 10
5.268281964409955
 20
3.611541742795647
 30
0.0
 11
5.611696457715311
 21
3.611541742795647
 31
0.0
  0
LINE
  5
2E9
102
{ACAD_REACTORS
330
2F0
330
2F1
102
}
330
2D1
100
AcDbEntity
  8
0
100
AcDbLine
 10
5.611696457715311
 20
3.611541742795647
 30
0.0
 11
5.611696457715311
 21
3.978118892971533
 31
0.0
  0
LINE
  5
2EA
102
{ACAD_REACTORS
330
2F0
330
2F1
102
}
330
2D1
100
AcDbEntity
  8
0
100
AcDbLine
 10
5.481696457715311
 20
3.725926523549409
 30
0.0
 11
5.481696457715311
 21
3.978118892971533
 31
0.0
  0
LINE
  5
2EB
102
{ACAD_REACTORS
330
2F0
330
2F1
102
}
330
2D1
100
AcDbEntity
  8
0
100
AcDbLine
 10
5.398281964409954
 20
4.142608650860012
 30
0.0
 11
5.398281964409956
 21
3.72592652354941
 31
0.0
  0
LINE
  5
2EC
102
{ACAD_REACTORS
330
2F0
330
2F1
102
}
330
2D1
100
AcDbEntity
  8
0
100
AcDbLine
 10
5.398281964409956
 20
3.72592652354941
 30
0.0
 11
5.481696457715311
 21
3.725926523549409
 31
0.0
  0
LWPOLYLINE
  5
2ED
102
{ACAD_REACTORS
330
2F0
330
2F1
102
}
330
2D1
100
AcDbEntity
  8
0
100
AcDbPolyline
 90
        4
 70
     1
 43
0.0
 10
5.47994486228201
 20
4.029815684798933
 10
5.606991063207004
 20
4.029815684798933
 10
5.606991063207004
 20
4.147308363017916
 10
5.47994486228201
 20
4.147308363017916
  0
LINE
  5
2EE
102
{ACAD_REACTORS
330
2F0
330
2F1
102
}
330
2D1
100
AcDbEntity
  8
0
100
AcDbLine
 10
5.481696457715311
 20
3.978118892971533
 30
0.0
 11
5.611696457715311
 21
3.978118892971533
 31
0.0
  0
TEXT
  5
2EF
102
{ACAD_REACTORS
330
2F0
330
2F1
102
}
330
2D1
100
AcDbEntity
  8
0
100
AcDbText
 10
5.484650256790317
 20
3.630340570472494
 30
0.0
 40
0.06
  1
TM
100
AcDbText
  0
HATCH
  5
2F0
330
2D1
100
AcDbEntity
  8
0
100
AcDbHatch
 10
0.0
 20
0.0
 30
0.0
210
0.0
220
0.0
230
1.0
  2
SOLID
 70
     1
 71
     1
 91
        4
 92
        7
 72
     1
 73
     1
 93
        8
 10
5.616596458463854
 20
4.189906245579851
 42
0.0
 10
4.683596458463856
 20
4.189906245579852
 42
0.414213562373095
 10
4.651596458463856
 20
4.157906245579852
 42
0.0
 10
4.651596458463856
 20
3.599906245579851
 42
0.4142135623730959
 10
4.683596458463856
 20
3.567906245579851
 42
0.0
 10
5.616596458463857
 20
3.567906245579852
 42
0.4142135623730958
 10
5.648596458463857
 20
3.599906245579852
 42
0.0
 10
5.648596458463854
 20
4.157906245579851
 42
0.414213562373094
 97
        1
330
2D4
 92
       22
 72
     0
 73
     1
 93
       25
 10
5.145860400733218
 20
4.142608650860012
 10
5.053338526403972
 20
4.012608650860014
 10
4.778435093539124
 20
4.012608650860013
 10
4.778435093539123
 20
3.942075196827829
 10
5.00313939278879
 20
3.942075196827829
 10
4.910617518459542
 20
3.812075196827829
 10
4.778435093539122
 20
3.812075196827829
 10
4.778435093539123
 20
3.741541742795648
 10
4.909514601493807
 20
3.741541742795648
 10
5.194956617382663
 20
4.142608650860011
 10
5.398281964409955
 20
4.142608650860012
 10
5.398281964409955
 20
3.725926523549409
 10
5.481696457715312
 20
3.72592652354941
 10
5.48169645771531
 20
3.978118892971533
 10
5.611696457715311
 20
3.978118892971533
 10
5.611696457715311
 20
3.611541742795647
 10
5.268281964409956
 20
3.611541742795647
 10
5.268281964409956
 20
3.725926523549409
 10
5.051826944553352
 20
3.725926523549409
 10
5.124279933288998
 20
3.827728271556762
 10
5.268281964409955
 20
3.827728271556761
 10
5.268281964409955
 20
4.09042250822303
 10
4.92745930289021
 20
3.611541742795647
 10
4.689435093539124
 20
3.611541742795647
 10
4.689435093539124
 20
4.142608650860011
 97
       25
330
2D8
330
2DA
330
2D9
330
2DC
330
2DF
330
2DD
330
2DE
330
2DB
330
2E0
330
2E1
330
2EB
330
2EC
330
2EA
330
2EE
330
2E9
330
2E8
330
2E7
330
2E5
330
2E6
330
2E4
330
2E3
330
2E2
330
2D7
330
2D6
330
2D5
 92
       22
 72
     0
 73
     1
 93
        4
 10
5.479944862281995
 20
4.147308363017916
 10
5.606991063207005
 20
4.147308363017916
 10
5.606991063207005
 20
4.029815684798933
 10
5.47994486228201
 20
4.029815684798933
 97
        1
330
2ED
 92
      136
 93
        4
 72
     1
 10
5.469650256790317
 20
3.615340570472494
 11
5.599650256790317
 21
3.615340570472494
 72
     1
 10
5.599650256790317
 20
3.615340570472494
 11
5.599650256790317
 21
3.705340570472494
 72
     1
 10
5.599650256790317
 20
3.705340570472494
 11
5.469650256790317
 21
3.705340570472494
 72
     1
 10
5.469650256790317
 20
3.705340570472494
 11
5.469650256790317
 21
3.615340570472494
 97
        1
330
2EF
 75
     0
 76
     1
 47
0.004699707028351
 98
       10
 10
4.618853862085543
 20
4.222503673725299
 10
4.618853862085543
 20
4.222503673725299
 10
4.618853862085543
 20
4.222503673725299
 10
4.618853862085543
 20
4.222503673725299
 10
4.618853862085543
 20
4.222503673725299
 10
4.755310891255767
 20
4.072113031355769
 10
4.915295010653395
 20
4.090911859032615
 10
5.103511614786725
 20
4.161407478536858
 10
5.103511614786725
 20
4.161407478536858
 10
5.103511614786725
 20
4.161407478536858
  0
HATCH
  5
2F1
330
2D1
100
AcDbEntity
  8
0
100
AcDbHatch
 10
0.0
 20
0.0
 30
0.0
210
0.0
220
0.0
230
1.0
  2
SOLID
 70
     1
 71
     1
 91
        6
 92
        7
 72
     0
 73
     1
 93
        4
 10
5.712596458463857
 20
4.253906245579852
 10
4.587596458463856
 20
4.253906245579852
 10
4.587596458463856
 20
3.503906245579852
 10
5.712596458463856
 20
3.503906245579852
 97
        1
330
2D2
 92
       22
 72
     1
 73
     1
 93
        8
 10
4.664596458463856
 20
3.535906245579851
 42
-0.4142135623730958
 10
4.619596458463856
 20
3.580906245579851
 42
0.0
 10
4.619596458463856
 20
4.176906245579853
 42
-0.4142135623730954
 10
4.664596458463856
 20
4.221906245579853
 42
0.0
 10
5.635596458463856
 20
4.221906245579851
 42
-0.4142135623730944
 10
5.680596458463856
 20
4.176906245579851
 42
0.0
 10
5.680596458463857
 20
3.580906245579853
 42
-0.4142135623730951
 10
5.635596458463857
 20
3.535906245579853
 42
0.0
 97
        1
330
2D3
 92
        6
 72
     1
 73
     1
 93
        8
 10
4.683596458463856
 20
3.567906245579851
 42
-0.4142135623730959
 10
4.651596458463856
 20
3.599906245579851
 42
0.0
 10
4.651596458463856
 20
4.157906245579852
 42
-0.414213562373095
 10
4.683596458463856
 20
4.189906245579852
 42
0.0
 10
5.616596458463854
 20
4.189906245579851
 42
-0.414213562373094
 10
5.648596458463854
 20
4.157906245579851
 42
0.0
 10
5.648596458463857
 20
3.599906245579852
 42
-0.4142135623730958
 10
5.616596458463857
 20
3.567906245579852
 42
0.0
 97
        1
330
2D4
 92
        6
 72
     0
 73
     1
 93
       25
 10
5.268281964409955
 20
3.611541742795647
 10
5.268281964409956
 20
3.725926523549409
 10
5.051826944553352
 20
3.725926523549409
 10
5.124279933288998
 20
3.827728271556762
 10
5.268281964409955
 20
3.827728271556761
 10
5.268281964409955
 20
4.09042250822303
 10
4.92745930289021
 20
3.611541742795647
 10
4.689435093539124
 20
3.611541742795647
 10
4.689435093539124
 20
4.142608650860011
 10
5.145860400733218
 20
4.142608650860011
 10
5.053338526403972
 20
4.012608650860014
 10
4.778435093539124
 20
4.012608650860013
 10
4.778435093539123
 20
3.942075196827829
 10
5.00313939278879
 20
3.942075196827829
 10
4.910617518459542
 20
3.812075196827829
 10
4.778435093539122
 20
3.812075196827829
 10
4.778435093539123
 20
3.741541742795648
 10
4.909514601493807
 20
3.741541742795648
 10
5.194956617382663
 20
4.142608650860011
 10
5.398281964409955
 20
4.142608650860012
 10
5.398281964409955
 20
3.725926523549409
 10
5.481696457715312
 20
3.72592652354941
 10
5.48169645771531
 20
3.978118892971533
 10
5.611696457715311
 20
3.978118892971533
 10
5.611696457715311
 20
3.611541742795647
 97
       25
330
2E7
330
2E5
330
2E6
330
2E4
330
2E3
330
2E2
330
2D7
330
2D6
330
2D5
330
2D8
330
2DA
330
2D9
330
2DC
330
2DF
330
2DD
330
2DE
330
2DB
330
2E0
330
2E1
330
2EB
330
2EC
330
2EA
330
2EE
330
2E9
330
2E8
 92
        6
 72
     0
 73
     1
 93
        4
 10
5.47994486228201
 20
4.029815684798932
 10
5.47994486228201
 20
4.147308363017916
 10
5.606991063207005
 20
4.147308363017916
 10
5.606991063207005
 20
4.029815684798933
 97
        1
330
2ED
 92
      136
 93
        4
 72
     1
 10
5.469650256790317
 20
3.615340570472494
 11
5.599650256790317
 21
3.615340570472494
 72
     1
 10
5.599650256790317
 20
3.615340570472494
 11
5.599650256790317
 21
3.705340570472494
 72
     1
 10
5.599650256790317
 20
3.705340570472494
 11
5.469650256790317
 21
3.705340570472494
 72
     1
 10
5.469650256790317
 20
3.705340570472494
 11
5.469650256790317
 21
3.615340570472494
 97
        1
330
2EF
 75
     0
 76
     1
 47
0.004699707028351
 98
        5
 10
5.456417772054614
 20
3.517547604411415
 10
5.456417772054614
 20
3.517547604411415
 10
5.456417772054614
 20
3.517547604411415
 10
5.456417772054614
 20
3.517547604411415
 10
5.456417772054614
 20
3.517547604411415
  0
ENDBLK
  5
2F3
330
2D1
100
AcDbEntity
  8
0
100
AcDbBlockEnd
  0
BLOCK
  5
46A
330
439
100
AcDbEntity
  8
0
100
AcDbBlockBegin
  2
*D1
 70
     1
 10
0.0
 20
0.0
 30
0.0
  3
*D1
  1

  0
LINE
  5
46B
330
439
100
AcDbEntity
  8
0
  6
BYBLOCK
 62
     0
100
AcDbLine
 10
438.4058720331337
 20
227.6660905469452
 30
0.0
 11
487.4917925092321
 21
227.6660905469452
 31
0.0
  0
LINE
  5
46C
330
439
100
AcDbEntity
  8
0
  6
BYBLOCK
 62
     0
100
AcDbLine
 10
438.4058720331337
 20
413.6660905469453
 30
0.0
 11
487.4917925092321
 21
413.6660905469452
 31
0.0
  0
LINE
  5
46D
330
439
100
AcDbEntity
  8
0
  6
BYBLOCK
 62
     0
100
AcDbLine
 10
486.2417925092321
 20
230.6660905469452
 30
0.0
 11
486.2417925092321
 21
410.6660905469452
 31
0.0
  0
SOLID
  5
46E
330
439
100
AcDbEntity
  8
0
  6
BYBLOCK
 62
     0
100
AcDbTrace
 10
485.7417925092321
 20
230.6660905469452
 30
0.0
 11
486.7417925092321
 21
230.6660905469452
 31
0.0
 12
486.2417925092321
 22
227.6660905469452
 32
0.0
 13
486.2417925092321
 23
227.6660905469452
 33
0.0
  0
SOLID
  5
46F
330
439
100
AcDbEntity
  8
0
  6
BYBLOCK
 62
     0
100
AcDbTrace
 10
485.7417925092321
 20
410.6660905469452
 30
0.0
 11
486.7417925092321
 21
410.6660905469452
 31
0.0
 12
486.2417925092321
 22
413.6660905469452
 32
0.0
 13
486.2417925092321
 23
413.6660905469452
 33
0.0
  0
MTEXT
  5
470
330
439
100
AcDbEntity
  8
0
  6
BYBLOCK
 62
     0
100
AcDbMText
 10
484.1167925092321
 20
320.6660905469452
 30
0.0
 40
3.0
 41
0.0
 71
     5
 72
     1
  1
\A1;186mm [7.3284"]
 11
0.0000000000000001
 21
1.0
 31
0.0
1001
ACAD
1000
MTEXTBEGIN
1070
    73
1070
     1
1070
    44
1040
1.0
1070
    74
1070
     0
1000
MTEXTEND
  0
POINT
  5
471
330
439
100
AcDbEntity
  8
DEFPOINTS
  6
BYBLOCK
 62
     0
100
AcDbPoint
 10
437.7808720331337
 20
227.6660905469452
 30
0.0
  0
POINT
  5
472
330
439
100
AcDbEntity
  8
DEFPOINTS
  6
BYBLOCK
 62
     0
100
AcDbPoint
 10
437.7808720331337
 20
413.6660905469453
 30
0.0
  0
POINT
  5
473
330
439
100
AcDbEntity
  8
DEFPOINTS
  6
BYBLOCK
 62
     0
100
AcDbPoint
 10
486.2417925092321
 20
413.6660905469452
 30
0.0
  0
ENDBLK
  5
474
330
439
100
AcDbEntity
  8
0
100
AcDbBlockEnd
  0
BLOCK
  5
475
330
445
100
AcDbEntity
  8
0
100
AcDbBlockBegin
  2
*D2
 70
     1
 10
0.0
 20
0.0
 30
0.0
  3
*D2
  1

  0
LINE
  5
476
330
445
100
AcDbEntity
  8
0
  6
BYBLOCK
 62
     0
100
AcDbLine
 10
248.7808720331337
 20
321.2910905469452
 30
0.0
 11
248.7808720331337
 21
362.0691903978169
 31
0.0
  0
LINE
  5
477
330
445
100
AcDbEntity
  8
0
  6
BYBLOCK
 62
     0
100
AcDbLine
 10
446.7808720331337
 20
321.2910905469452
 30
0.0
 11
446.7808720331337
 21
362.0691903978169
 31
0.0
  0
LINE
  5
478
330
445
100
AcDbEntity
  8
0
  6
BYBLOCK
 62
     0
100
AcDbLine
 10
251.7808720331337
 20
360.819190397817
 30
0.0
 11
443.7808720331337
 21
360.819190397817
 31
0.0
  0
SOLID
  5
479
330
445
100
AcDbEntity
  8
0
  6
BYBLOCK
 62
     0
100
AcDbTrace
 10
251.7808720331337
 20
361.319190397817
 30
0.0
 11
251.7808720331337
 21
360.319190397817
 31
0.0
 12
248.7808720331337
 22
360.819190397817
 32
0.0
 13
248.7808720331337
 23
360.819190397817
 33
0.0
  0
SOLID
  5
47A
330
445
100
AcDbEntity
  8
0
  6
BYBLOCK
 62
     0
100
AcDbTrace
 10
443.7808720331337
 20
361.319190397817
 30
0.0
 11
443.7808720331337
 21
360.319190397817
 31
0.0
 12
446.7808720331337
 22
360.819190397817
 32
0.0
 13
446.7808720331337
 23
360.819190397817
 33
0.0
  0
MTEXT
  5
47B
330
445
100
AcDbEntity
  8
0
  6
BYBLOCK
 62
     0
100
AcDbMText
 10
347.7808720331337
 20
362.944190397817
 30
0.0
 40
3.0
 41
0.0
 71
     5
 72
     1
  1
\A1;198mm [7.8012"]
1001
ACAD
1000
MTEXTBEGIN
1070
    73
1070
     1
1070
    44
1040
1.0
1070
    74
1070
     0
1000
MTEXTEND
  0
POINT
  5
47C
330
445
100
AcDbEntity
  8
DEFPOINTS
  6
BYBLOCK
 62
     0
100
AcDbPoint
 10
248.7808720331337
 20
320.6660905469452
 30
0.0
  0
POINT
  5
47D
330
445
100
AcDbEntity
  8
DEFPOINTS
  6
BYBLOCK
 62
     0
100
AcDbPoint
 10
446.7808720331337
 20
320.6660905469452
 30
0.0
  0
POINT
  5
47E
330
445
100
AcDbEntity
  8
DEFPOINTS
  6
BYBLOCK
 62
     0
100
AcDbPoint
 10
446.7808720331337
 20
360.819190397817
 30
0.0
  0
ENDBLK
  5
47F
330
445
100
AcDbEntity
  8
0
100
AcDbBlockEnd
  0
BLOCK
  5
480
330
451
100
AcDbEntity
  8
0
100
AcDbBlockBegin
  2
*D3
 70
     1
 10
0.0
 20
0.0
 30
0.0
  3
*D3
  1

  0
LINE
  5
481
330
451
100
AcDbEntity
  8
0
  6
BYBLOCK
 62
     0
100
AcDbLine
 10
249.4058720331337
 20
320.6660905469452
 30
0.0
 11
281.9905359889701
 21
320.6660905469452
 31
0.0
  0
LINE
  5
482
330
451
100
AcDbEntity
  8
0
  6
BYBLOCK
 62
     0
100
AcDbLine
 10
347.1558720331337
 20
285.6660905469452
 30
0.0
 11
279.4905359889701
 21
285.6660905469452
 31
0.0
  0
LINE
  5
483
330
451
100
AcDbEntity
  8
0
  6
BYBLOCK
 62
     0
100
AcDbLine
 10
280.7405359889701
 20
317.6660905469452
 30
0.0
 11
280.7405359889701
 21
288.6660905469452
 31
0.0
  0
LINE
  5
484
330
451
100
AcDbEntity
  8
0
  6
BYBLOCK
 62
     0
100
AcDbLine
 10
280.7405359889701
 20
285.6660905469452
 30
0.0
 11
280.7405359889701
 21
246.9160905469452
 31
0.0
  0
SOLID
  5
485
330
451
100
AcDbEntity
  8
0
  6
BYBLOCK
 62
     0
100
AcDbTrace
 10
280.2405359889701
 20
317.6660905469452
 30
0.0
 11
281.2405359889701
 21
317.6660905469452
 31
0.0
 12
280.7405359889701
 22
320.6660905469452
 32
0.0
 13
280.7405359889701
 23
320.6660905469452
 33
0.0
  0
SOLID
  5
486
330
451
100
AcDbEntity
  8
0
  6
BYBLOCK
 62
     0
100
AcDbTrace
 10
280.2405359889701
 20
288.6660905469452
 30
0.0
 11
281.2405359889701
 21
288.6660905469452
 31
0.0
 12
280.7405359889701
 22
285.6660905469452
 32
0.0
 13
280.7405359889701
 23
285.6660905469452
 33
0.0
  0
MTEXT
  5
487
330
451
100
AcDbEntity
  8
0
  6
BYBLOCK
 62
     0
100
AcDbMText
 10
278.6155359889701
 20
264.7910905469452
 30
0.0
 40
3.0
 41
0.0
 71
     5
 72
     1
  1
\A1;35mm [1.3790"]
 11
0.0000000000000001
 21
1.0
 31
0.0
1001
ACAD
1000
MTEXTBEGIN
1070
    73
1070
     1
1070
    44
1040
1.0
1070
    74
1070
     0
1000
MTEXTEND
  0
POINT
  5
488
330
451
100
AcDbEntity
  8
DEFPOINTS
  6
BYBLOCK
 62
     0
100
AcDbPoint
 10
248.7808720331337
 20
320.6660905469452
 30
0.0
  0
POINT
  5
489
330
451
100
AcDbEntity
  8
DEFPOINTS
  6
BYBLOCK
 62
     0
100
AcDbPoint
 10
347.7808720331337
 20
285.6660905469452
 30
0.0
  0
POINT
  5
48A
330
451
100
AcDbEntity
  8
DEFPOINTS
  6
BYBLOCK
 62
     0
100
AcDbPoint
 10
280.7405359889701
 20
285.6660905469452
 30
0.0
  0
ENDBLK
  5
48B
330
451
100
AcDbEntity
  8
0
100
AcDbBlockEnd
  0
BLOCK
  5
48C
330
45E
100
AcDbEntity
  8
0
100
AcDbBlockBegin
  2
*D4
 70
     1
 10
0.0
 20
0.0
 30
0.0
  3
*D4
  1

  0
LINE
  5
48D
330
45E
100
AcDbEntity
  8
0
  6
BYBLOCK
 62
     0
100
AcDbLine
 10
257.7808720331337
 20
227.0410905469452
 30
0.0
 11
257.7808720331337
 21
192.5138138828259
 31
0.0
  0
LINE
  5
48E
330
45E
100
AcDbEntity
  8
0
  6
BYBLOCK
 62
     0
100
AcDbLine
 10
437.7808720331337
 20
227.0410905469452
 30
0.0
 11
437.7808720331337
 21
192.5138138828259
 31
0.0
  0
LINE
  5
48F
330
45E
100
AcDbEntity
  8
0
  6
BYBLOCK
 62
     0
100
AcDbLine
 10
260.7808720331337
 20
193.7638138828259
 30
0.0
 11
434.7808720331337
 21
193.7638138828259
 31
0.0
  0
SOLID
  5
490
330
45E
100
AcDbEntity
  8
0
  6
BYBLOCK
 62
     0
100
AcDbTrace
 10
260.7808720331337
 20
194.2638138828259
 30
0.0
 11
260.7808720331337
 21
193.2638138828259
 31
0.0
 12
257.7808720331337
 22
193.7638138828259
 32
0.0
 13
257.7808720331337
 23
193.7638138828259
 33
0.0
  0
SOLID
  5
491
330
45E
100
AcDbEntity
  8
0
  6
BYBLOCK
 62
     0
100
AcDbTrace
 10
434.7808720331337
 20
194.2638138828259
 30
0.0
 11
434.7808720331337
 21
193.2638138828259
 31
0.0
 12
437.7808720331337
 22
193.7638138828259
 32
0.0
 13
437.7808720331337
 23
193.7638138828259
 33
0.0
  0
MTEXT
  5
492
330
45E
100
AcDbEntity
  8
0
  6
BYBLOCK
 62
     0
100
AcDbMText
 10
347.7808720331337
 20
195.8888138828259
 30
0.0
 40
3.0
 41
0.0
 71
     5
 72
     1
  1
\A1;180mm [7.0920"]
1001
ACAD
1000
MTEXTBEGIN
1070
    73
1070
     1
1070
    44
1040
1.0
1070
    74
1070
     0
1000
MTEXTEND
  0
POINT
  5
493
330
45E
100
AcDbEntity
  8
DEFPOINTS
  6
BYBLOCK
 62
     0
100
AcDbPoint
 10
257.7808720331337
 20
227.6660905469452
 30
0.0
  0
POINT
  5
494
330
45E
100
AcDbEntity
  8
DEFPOINTS
  6
BYBLOCK
 62
     0
100
AcDbPoint
 10
437.7808720331337
 20
227.6660905469452
 30
0.0
  0
POINT
  5
495
330
45E
100
AcDbEntity
  8
DEFPOINTS
  6
BYBLOCK
 62
     0
100
AcDbPoint
 10
437.7808720331337
 20
193.7638138828259
 30
0.0
  0
ENDBLK
  5
496
330
45E
100
AcDbEntity
  8
0
100
AcDbBlockEnd
  0
BLOCK
  5
52F
330
517
100
AcDbEntity
  8
0
100
AcDbBlockBegin
  2
*D5
 70
     1
 10
0.0
 20
0.0
 30
0.0
  3
*D5
  1

  0
LINE
  5
530
330
517
100
AcDbEntity
  8
0
  6
BYBLOCK
 62
     0
100
AcDbLine
 10
230.0643476654482
 20
704.0718864256501
 30
0.0
 11
230.0643476654482
 21
735.8378501578425
 31
0.0
  0
LINE
  5
531
330
517
100
AcDbEntity
  8
0
  6
BYBLOCK
 62
     0
100
AcDbLine
 10
458.0643476654483
 20
704.0718864256501
 30
0.0
 11
458.0643476654483
 21
735.8378501578425
 31
0.0
  0
LINE
  5
532
330
517
100
AcDbEntity
  8
0
  6
BYBLOCK
 62
     0
100
AcDbLine
 10
235.0643476654482
 20
734.5878501578424
 30
0.0
 11
453.0643476654482
 21
734.5878501578424
 31
0.0
  0
SOLID
  5
533
330
517
100
AcDbEntity
  8
0
  6
BYBLOCK
 62
     0
100
AcDbTrace
 10
235.0643476654482
 20
735.4211834911758
 30
0.0
 11
235.0643476654482
 21
733.7545168245091
 31
0.0
 12
230.0643476654482
 22
734.5878501578424
 32
0.0
 13
230.0643476654482
 23
734.5878501578424
 33
0.0
  0
SOLID
  5
534
330
517
100
AcDbEntity
  8
0
  6
BYBLOCK
 62
     0
100
AcDbTrace
 10
453.0643476654482
 20
735.4211834911758
 30
0.0
 11
453.0643476654482
 21
733.7545168245091
 31
0.0
 12
458.0643476654483
 22
734.5878501578424
 32
0.0
 13
458.0643476654483
 23
734.5878501578424
 33
0.0
  0
MTEXT
  5
535
330
517
100
AcDbEntity
  8
0
  6
BYBLOCK
 62
     0
100
AcDbMText
 10
344.0643476654482
 20
737.7128501578424
 30
0.0
 40
5.0
 41
0.0
 71
     5
 72
     1
  1
\A1;228mm [8.9832"]
1001
ACAD
1000
MTEXTBEGIN
1070
    73
1070
     1
1070
    44
1040
1.0
1070
    74
1070
     0
1000
MTEXTEND
  0
POINT
  5
536
330
517
100
AcDbEntity
  8
DEFPOINTS
  6
BYBLOCK
 62
     0
100
AcDbPoint
 10
230.0643476654482
 20
703.4468864256502
 30
0.0
  0
POINT
  5
537
330
517
100
AcDbEntity
  8
DEFPOINTS
  6
BYBLOCK
 62
     0
100
AcDbPoint
 10
458.0643476654483
 20
703.4468864256502
 30
0.0
  0
POINT
  5
538
330
517
100
AcDbEntity
  8
DEFPOINTS
  6
BYBLOCK
 62
     0
100
AcDbPoint
 10
458.0643476654483
 20
734.5878501578424
 30
0.0
  0
ENDBLK
  5
539
330
517
100
AcDbEntity
  8
0
100
AcDbBlockEnd
  0
BLOCK
  5
53A
330
523
100
AcDbEntity
  8
0
100
AcDbBlockBegin
  2
*D6
 70
     1
 10
0.0
 20
0.0
 30
0.0
  3
*D6
  1

  0
LINE
  5
53B
330
523
100
AcDbEntity
  8
0
  6
BYBLOCK
 62
     0
100
AcDbLine
 10
240.4393476654482
 20
498.4468864256501
 30
0.0
 11
216.1025711172519
 21
498.4468864256501
 31
0.0
  0
LINE
  5
53C
330
523
100
AcDbEntity
  8
0
  6
BYBLOCK
 62
     0
100
AcDbLine
 10
240.4393476654482
 20
714.4468864256501
 30
0.0
 11
216.1025711172519
 21
714.4468864256501
 31
0.0
  0
LINE
  5
53D
330
523
100
AcDbEntity
  8
0
  6
BYBLOCK
 62
     0
100
AcDbLine
 10
217.3525711172519
 20
503.4468864256502
 30
0.0
 11
217.3525711172519
 21
709.4468864256501
 31
0.0
  0
SOLID
  5
53E
330
523
100
AcDbEntity
  8
0
  6
BYBLOCK
 62
     0
100
AcDbTrace
 10
216.5192377839185
 20
503.4468864256502
 30
0.0
 11
218.1859044505852
 21
503.4468864256502
 31
0.0
 12
217.3525711172519
 22
498.4468864256501
 32
0.0
 13
217.3525711172519
 23
498.4468864256501
 33
0.0
  0
SOLID
  5
53F
330
523
100
AcDbEntity
  8
0
  6
BYBLOCK
 62
     0
100
AcDbTrace
 10
216.5192377839186
 20
709.4468864256501
 30
0.0
 11
218.1859044505852
 21
709.4468864256501
 31
0.0
 12
217.3525711172519
 22
714.4468864256501
 32
0.0
 13
217.3525711172519
 23
714.4468864256501
 33
0.0
  0
MTEXT
  5
540
330
523
100
AcDbEntity
  8
0
  6
BYBLOCK
 62
     0
100
AcDbMText
 10
214.2275711172519
 20
606.4468864256501
 30
0.0
 40
5.0
 41
0.0
 71
     5
 72
     1
  1
\A1;216mm [8.5104"]
 11
0.0000000000000001
 21
1.0
 31
0.0
1001
ACAD
1000
MTEXTBEGIN
1070
    73
1070
     1
1070
    44
1040
1.0
1070
    74
1070
     0
1000
MTEXTEND
  0
POINT
  5
541
330
523
100
AcDbEntity
  8
DEFPOINTS
  6
BYBLOCK
 62
     0
100
AcDbPoint
 10
241.0643476654482
 20
498.4468864256501
 30
0.0
  0
POINT
  5
542
330
523
100
AcDbEntity
  8
DEFPOINTS
  6
BYBLOCK
 62
     0
100
AcDbPoint
 10
241.0643476654482
 20
714.4468864256501
 30
0.0
  0
POINT
  5
543
330
523
100
AcDbEntity
  8
DEFPOINTS
  6
BYBLOCK
 62
     0
100
AcDbPoint
 10
217.3525711172519
 20
714.4468864256501
 30
0.0
  0
ENDBLK
  5
544
330
523
100
AcDbEntity
  8
0
100
AcDbBlockEnd
  0
BLOCK
  5
59D
330
56D
100
AcDbEntity
  8
0
100
AcDbBlockBegin
  2
*D7
 70
     1
 10
0.0
 20
0.0
 30
0.0
  3
*D7
  1

  0
LINE
  5
59E
330
56D
100
AcDbEntity
  8
0
  6
BYBLOCK
 62
     0
100
AcDbLine
 10
850.8211947233821
 20
479.7255114412644
 30
0.0
 11
880.324091124948
 21
479.7255114412644
 31
0.0
  0
LINE
  5
59F
330
56D
100
AcDbEntity
  8
0
  6
BYBLOCK
 62
     0
100
AcDbLine
 10
850.8211947233821
 20
695.7255114412644
 30
0.0
 11
880.324091124948
 21
695.7255114412644
 31
0.0
  0
LINE
  5
5A0
330
56D
100
AcDbEntity
  8
0
  6
BYBLOCK
 62
     0
100
AcDbLine
 10
878.1621496432508
 20
484.3953050417303
 30
0.0
 11
878.1621496432508
 21
691.0557178407986
 31
0.0
  0
SOLID
  5
5A1
330
56D
100
AcDbEntity
  8
0
  6
BYBLOCK
 62
     0
100
AcDbTrace
 10
877.38385070984
 20
484.3953050417303
 30
0.0
 11
878.9404485766619
 21
484.3953050417303
 31
0.0
 12
878.1621496432508
 22
479.7255114412644
 32
0.0
 13
878.1621496432508
 23
479.7255114412644
 33
0.0
  0
SOLID
  5
5A2
330
56D
100
AcDbEntity
  8
0
  6
BYBLOCK
 62
     0
100
AcDbTrace
 10
877.38385070984
 20
691.0557178407986
 30
0.0
 11
878.9404485766619
 21
691.0557178407986
 31
0.0
 12
878.1621496432508
 22
695.7255114412644
 32
0.0
 13
878.1621496432508
 23
695.7255114412644
 33
0.0
  0
MTEXT
  5
5A3
330
56D
100
AcDbEntity
  8
0
  6
BYBLOCK
 62
     0
100
AcDbMText
 10
874.7462821021693
 20
587.7255114412644
 30
0.0
 40
4.669793600465869
 41
0.0
 71
     5
 72
     1
  1
\A1;216mm [8.5104"]
 11
0.0000000000000001
 21
1.0
 31
0.0
1001
ACAD
1000
MTEXTBEGIN
1070
    73
1070
     1
1070
    44
1040
1.0
1070
    74
1070
     0
1000
MTEXTEND
  0
POINT
  5
5A4
330
56D
100
AcDbEntity
  8
DEFPOINTS
  6
BYBLOCK
 62
     0
100
AcDbPoint
 10
849.7402239825335
 20
479.7255114412644
 30
0.0
  0
POINT
  5
5A5
330
56D
100
AcDbEntity
  8
DEFPOINTS
  6
BYBLOCK
 62
     0
100
AcDbPoint
 10
849.7402239825335
 20
695.7255114412644
 30
0.0
  0
POINT
  5
5A6
330
56D
100
AcDbEntity
  8
DEFPOINTS
  6
BYBLOCK
 62
     0
100
AcDbPoint
 10
878.1621496432508
 20
695.7255114412644
 30
0.0
  0
ENDBLK
  5
5A7
330
56D
100
AcDbEntity
  8
0
100
AcDbBlockEnd
  0
BLOCK
  5
5A8
330
579
100
AcDbEntity
  8
0
100
AcDbBlockBegin
  2
*D8
 70
     1
 10
0.0
 20
0.0
 30
0.0
  3
*D8
  1

  0
LINE
  5
5A9
330
579
100
AcDbEntity
  8
0
  6
BYBLOCK
 62
     0
100
AcDbLine
 10
646.7402239825336
 20
621.5445407004158
 30
0.0
 11
646.7402239825336
 21
594.9913627108336
 31
0.0
  0
LINE
  5
5AA
330
579
100
AcDbEntity
  8
0
  6
BYBLOCK
 62
     0
100
AcDbLine
 10
846.7402239825336
 20
621.544540700416
 30
0.0
 11
846.7402239825336
 21
594.9913627108336
 31
0.0
  0
LINE
  5
5AB
330
579
100
AcDbEntity
  8
0
  6
BYBLOCK
 62
     0
100
AcDbLine
 10
651.4100175829995
 20
597.1533041925307
 30
0.0
 11
842.0704303820677
 21
597.1533041925307
 31
0.0
  0
SOLID
  5
5AC
330
579
100
AcDbEntity
  8
0
  6
BYBLOCK
 62
     0
100
AcDbTrace
 10
651.4100175829995
 20
597.9316031259417
 30
0.0
 11
651.4100175829995
 21
596.3750052591198
 31
0.0
 12
646.7402239825336
 22
597.1533041925307
 32
0.0
 13
646.7402239825336
 23
597.1533041925307
 33
0.0
  0
SOLID
  5
5AD
330
579
100
AcDbEntity
  8
0
  6
BYBLOCK
 62
     0
100
AcDbTrace
 10
842.0704303820677
 20
597.9316031259417
 30
0.0
 11
842.0704303820677
 21
596.3750052591198
 31
0.0
 12
846.7402239825336
 22
597.1533041925307
 32
0.0
 13
846.7402239825336
 23
597.1533041925307
 33
0.0
  0
MTEXT
  5
5AE
330
579
100
AcDbEntity
  8
0
  6
BYBLOCK
 62
     0
100
AcDbMText
 10
701.3144398587598
 20
600.5691717336122
 30
0.0
 40
4.669793600465869
 41
0.0
 71
     5
 72
     1
  1
\A1;200mm [7.8800"]
1001
ACAD
1000
MTEXTBEGIN
1070
    73
1070
     1
1070
    44
1040
1.0
1070
    74
1070
     0
1000
MTEXTEND
  0
POINT
  5
5AF
330
579
100
AcDbEntity
  8
DEFPOINTS
  6
BYBLOCK
 62
     0
100
AcDbPoint
 10
646.7402239825336
 20
622.6255114412643
 30
0.0
  0
POINT
  5
5B0
330
579
100
AcDbEntity
  8
DEFPOINTS
  6
BYBLOCK
 62
     0
100
AcDbPoint
 10
846.7402239825336
 20
622.6255114412644
 30
0.0
  0
POINT
  5
5B1
330
579
100
AcDbEntity
  8
DEFPOINTS
  6
BYBLOCK
 62
     0
100
AcDbPoint
 10
846.7402239825336
 20
597.1533041925307
 30
0.0
  0
ENDBLK
  5
5B2
330
579
100
AcDbEntity
  8
0
100
AcDbBlockEnd
  0
BLOCK
  5
5B3
330
585
100
AcDbEntity
  8
0
100
AcDbBlockBegin
  2
*D9
 70
     1
 10
0.0
 20
0.0
 30
0.0
  3
*D9
  1

  0
LINE
  5
5B4
330
585
100
AcDbEntity
  8
0
  6
BYBLOCK
 62
     0
100
AcDbLine
 10
845.659253241685
 20
492.6255114412644
 30
0.0
 11
804.1709003103173
 21
492.6255114412644
 31
0.0
  0
LINE
  5
5B5
330
585
100
AcDbEntity
  8
0
  6
BYBLOCK
 62
     0
100
AcDbLine
 10
845.659253241685
 20
622.6255114412644
 30
0.0
 11
804.1709003103173
 21
622.6255114412644
 31
0.0
  0
LINE
  5
5B6
330
585
100
AcDbEntity
  8
0
  6
BYBLOCK
 62
     0
100
AcDbLine
 10
806.3328417920144
 20
497.2953050417302
 30
0.0
 11
806.3328417920144
 21
617.9557178407987
 31
0.0
  0
SOLID
  5
5B7
330
585
100
AcDbEntity
  8
0
  6
BYBLOCK
 62
     0
100
AcDbTrace
 10
805.5545428586036
 20
497.2953050417302
 30
0.0
 11
807.1111407254255
 21
497.2953050417302
 31
0.0
 12
806.3328417920144
 22
492.6255114412644
 32
0.0
 13
806.3328417920144
 23
492.6255114412644
 33
0.0
  0
SOLID
  5
5B8
330
585
100
AcDbEntity
  8
0
  6
BYBLOCK
 62
     0
100
AcDbTrace
 10
805.5545428586036
 20
617.9557178407987
 30
0.0
 11
807.1111407254255
 21
617.9557178407987
 31
0.0
 12
806.3328417920144
 22
622.6255114412644
 32
0.0
 13
806.3328417920144
 23
622.6255114412644
 33
0.0
  0
MTEXT
  5
5B9
330
585
100
AcDbEntity
  8
0
  6
BYBLOCK
 62
     0
100
AcDbMText
 10
802.916974250933
 20
548.8667805224334
 30
0.0
 40
4.669793600465869
 41
0.0
 71
     5
 72
     1
  1
\A1;130mm [5.1220"]
 11
0.0000000000000001
 21
1.0
 31
0.0
1001
ACAD
1000
MTEXTBEGIN
1070
    73
1070
     1
1070
    44
1040
1.0
1070
    74
1070
     0
1000
MTEXTEND
  0
POINT
  5
5BA
330
585
100
AcDbEntity
  8
DEFPOINTS
  6
BYBLOCK
 62
     0
100
AcDbPoint
 10
846.7402239825336
 20
492.6255114412644
 30
0.0
  0
POINT
  5
5BB
330
585
100
AcDbEntity
  8
DEFPOINTS
  6
BYBLOCK
 62
     0
100
AcDbPoint
 10
846.7402239825336
 20
622.6255114412644
 30
0.0
  0
POINT
  5
5BC
330
585
100
AcDbEntity
  8
DEFPOINTS
  6
BYBLOCK
 62
     0
100
AcDbPoint
 10
806.3328417920144
 20
622.6255114412644
 30
0.0
  0
ENDBLK
  5
5BD
330
585
100
AcDbEntity
  8
0
100
AcDbBlockEnd
  0
BLOCK
  5
5BE
330
591
100
AcDbEntity
  8
0
100
AcDbBlockBegin
  2
*D10
 70
     1
 10
0.0
 20
0.0
 30
0.0
  3
*D10
  1

  0
LINE
  5
5BF
330
591
100
AcDbEntity
  8
0
  6
BYBLOCK
 62
     0
100
AcDbLine
 10
632.7402239825336
 20
685.8064821821129
 30
0.0
 11
632.7402239825336
 21
715.8234538910907
 31
0.0
  0
LINE
  5
5C0
330
591
100
AcDbEntity
  8
0
  6
BYBLOCK
 62
     0
100
AcDbLine
 10
860.7402239825336
 20
685.8064821821129
 30
0.0
 11
860.7402239825336
 21
715.8234538910907
 31
0.0
  0
LINE
  5
5C1
330
591
100
AcDbEntity
  8
0
  6
BYBLOCK
 62
     0
100
AcDbLine
 10
637.4100175829994
 20
713.6615124093935
 30
0.0
 11
856.0704303820678
 21
713.6615124093935
 31
0.0
  0
SOLID
  5
5C2
330
591
100
AcDbEntity
  8
0
  6
BYBLOCK
 62
     0
100
AcDbTrace
 10
637.4100175829994
 20
714.4398113428045
 30
0.0
 11
637.4100175829994
 21
712.8832134759826
 31
0.0
 12
632.7402239825336
 22
713.6615124093935
 32
0.0
 13
632.7402239825336
 23
713.6615124093935
 33
0.0
  0
SOLID
  5
5C3
330
591
100
AcDbEntity
  8
0
  6
BYBLOCK
 62
     0
100
AcDbTrace
 10
856.0704303820678
 20
714.4398113428045
 30
0.0
 11
856.0704303820678
 21
712.8832134759826
 31
0.0
 12
860.7402239825336
 22
713.6615124093935
 32
0.0
 13
860.7402239825336
 23
713.6615124093935
 33
0.0
  0
MTEXT
  5
5C4
330
591
100
AcDbEntity
  8
0
  6
BYBLOCK
 62
     0
100
AcDbMText
 10
746.7402239825336
 20
717.077379950475
 30
0.0
 40
4.669793600465869
 41
0.0
 71
     5
 72
     1
  1
\A1;228mm [8.9832"]
1001
ACAD
1000
MTEXTBEGIN
1070
    73
1070
     1
1070
    44
1040
1.0
1070
    74
1070
     0
1000
MTEXTEND
  0
POINT
  5
5C5
330
591
100
AcDbEntity
  8
DEFPOINTS
  6
BYBLOCK
 62
     0
100
AcDbPoint
 10
632.7402239825336
 20
684.7255114412644
 30
0.0
  0
POINT
  5
5C6
330
591
100
AcDbEntity
  8
DEFPOINTS
  6
BYBLOCK
 62
     0
100
AcDbPoint
 10
860.7402239825336
 20
684.7255114412644
 30
0.0
  0
POINT
  5
5C7
330
591
100
AcDbEntity
  8
DEFPOINTS
  6
BYBLOCK
 62
     0
100
AcDbPoint
 10
860.7402239825336
 20
713.6615124093935
 30
0.0
  0
ENDBLK
  5
5C8
330
591
100
AcDbEntity
  8
0
100
AcDbBlockEnd
  0
BLOCK
  5
673
330
60C
100
AcDbEntity
  8
0
100
AcDbBlockBegin
  2
*D11
 70
     1
 10
0.0
 20
0.0
 30
0.0
  3
*D11
  1

  0
LINE
  5
674
330
60C
100
AcDbEntity
  8
0
  6
BYBLOCK
 62
     0
100
AcDbLine
 10
845.1179254157029
 20
268.8792258793531
 30
0.0
 11
893.3283404046292
 21
268.8792258793531
 31
0.0
  0
LINE
  5
675
330
60C
100
AcDbEntity
  8
0
  6
BYBLOCK
 62
     0
100
AcDbLine
 10
857.9528013728102
 20
318.8943995815042
 30
0.0
 11
893.3283404046292
 21
318.8943995815042
 31
0.0
  0
LINE
  5
676
330
60C
100
AcDbEntity
  8
0
  6
BYBLOCK
 62
     0
100
AcDbLine
 10
892.0783404046293
 20
271.8792258793531
 30
0.0
 11
892.0783404046293
 21
315.8943995815042
 31
0.0
  0
SOLID
  5
677
330
60C
100
AcDbEntity
  8
0
  6
BYBLOCK
 62
     0
100
AcDbTrace
 10
891.5783404046292
 20
271.8792258793531
 30
0.0
 11
892.5783404046294
 21
271.8792258793531
 31
0.0
 12
892.0783404046293
 22
268.8792258793531
 32
0.0
 13
892.0783404046293
 23
268.8792258793531
 33
0.0
  0
SOLID
  5
678
330
60C
100
AcDbEntity
  8
0
  6
BYBLOCK
 62
     0
100
AcDbTrace
 10
891.5783404046292
 20
315.8943995815042
 30
0.0
 11
892.5783404046294
 21
315.8943995815042
 31
0.0
 12
892.0783404046293
 22
318.8943995815042
 32
0.0
 13
892.0783404046293
 23
318.8943995815042
 33
0.0
  0
MTEXT
  5
679
330
60C
100
AcDbEntity
  8
0
  6
BYBLOCK
 62
     0
100
AcDbMText
 10
889.9533404046293
 20
293.8868127304287
 30
0.0
 40
3.0
 41
0.0
 71
     5
 72
     1
  1
\A1;50.02mm [1.9706"]
 11
0.0000000000000001
 21
1.0
 31
0.0
1001
ACAD
1000
MTEXTBEGIN
1070
    73
1070
     1
1070
    44
1040
1.0
1070
    74
1070
     0
1000
MTEXTEND
  0
POINT
  5
67A
330
60C
100
AcDbEntity
  8
DEFPOINTS
  6
BYBLOCK
 62
     0
100
AcDbPoint
 10
844.4929254157029
 20
268.8792258793531
 30
0.0
  0
POINT
  5
67B
330
60C
100
AcDbEntity
  8
DEFPOINTS
  6
BYBLOCK
 62
     0
100
AcDbPoint
 10
857.3278013728103
 20
318.8943995815042
 30
0.0
  0
POINT
  5
67C
330
60C
100
AcDbEntity
  8
DEFPOINTS
  6
BYBLOCK
 62
     0
100
AcDbPoint
 10
892.0783404046293
 20
318.8943995815042
 30
0.0
  0
ENDBLK
  5
67D
330
60C
100
AcDbEntity
  8
0
100
AcDbBlockEnd
  0
BLOCK
  5
67E
330
618
100
AcDbEntity
  8
0
100
AcDbBlockBegin
  2
*D12
 70
     1
 10
0.0
 20
0.0
 30
0.0
  3
*D12
  1

  0
LINE
  5
8A0
330
618
100
AcDbEntity
  8
DIM
 62
     0
100
AcDbLine
 10
405.6787351778098
 20
376.3663545603928
 30
0.0
 11
426.241617414077
 21
372.7405636210081
 31
0.0
  0
ARC
  5
8A1
330
618
100
AcDbEntity
  8
DIM
 62
     0
100
AcDbCircle
 10
405.0632303321766
 20
376.4748846714347
 30
0.0
 40
20.25509783977887
100
AcDbArc
 50
332.9650718370718
 51
350.0
  0
LINE
  5
8A2
330
618
100
AcDbEntity
  8
DIM
 62
     0
100
AcDbLine
 10
423.1050455459863
 20
367.268262473812
 30
0.0
 11
417.3097423611674
 21
355.9114600630968
 31
0.0
  0
ARC
  5
8A3
330
618
100
AcDbEntity
  8
DIM
 62
     0
100
AcDbCircle
 10
405.0632303321766
 20
376.4748846714347
 30
0.0
 40
20.25509783977887
100
AcDbArc
 50
333.0121937837976
 51
341.5060968918987
  0
ARC
  5
8A4
330
618
100
AcDbEntity
  8
DIM
 62
     0
100
AcDbCircle
 10
405.0632303321766
 20
376.4748846714347
 30
0.0
 40
20.25509783977887
100
AcDbArc
 50
8.493903108101026
 51
16.98780621620213
  0
ARC
  5
8A5
330
618
100
AcDbEntity
  8
DIM
 62
     0
100
AcDbCircle
 10
405.0632303321766
 20
376.4748846714347
 30
0.0
 40
20.25509783977887
100
AcDbArc
 50
350.0
 51
359.9999999999997
  0
SOLID
  5
8A6
330
618
100
AcDbEntity
  8
DIM
 62
     0
100
AcDbTrace
 10
423.7876805472676
 20
370.1729426901919
 30
0.0
 11
424.7569245522915
 21
369.9268409658478
 31
0.0
 12
425.0106077228116
 22
372.9576238430917
 32
0.0
 13
425.0106077228116
 23
372.9576238430917
 33
0.0
  0
SOLID
  5
8A7
330
618
100
AcDbEntity
  8
DIM
 62
     0
100
AcDbTrace
 10
425.5947889423559
 20
379.5036747669067
 30
0.0
 11
424.5975348156949
 21
379.42961933593
 31
0.0
 12
425.3183281719555
 22
376.4748846714346
 32
0.0
 13
425.3183281719555
 23
376.4748846714346
 33
0.0
  0
MTEXT
  5
8A8
330
618
100
AcDbEntity
  8
DIM
 62
     0
100
AcDbMText
 10
418.3145935517909
 20
362.5557451325908
 30
0.0
 40
3.0
 41
0.0
 71
     5
 72
     1
  1
\A1;10.00°
 11
0.4545335831230548
 21
0.8907296008404104
 31
0.0
  0
POINT
  5
8A9
330
618
100
AcDbEntity
  8
DEFPOINTS
 62
     0
100
AcDbPoint
 10
425.2840597522106
 20
375.2971554729758
 30
0.0
  0
POINT
  5
8AA
330
618
100
AcDbEntity
  8
DEFPOINTS
 62
     0
100
AcDbPoint
 10
405.0632303321773
 20
376.4748846714347
 30
0.0
  0
POINT
  5
8AB
330
618
100
AcDbEntity
  8
DEFPOINTS
 62
     0
100
AcDbPoint
 10
405.0632303321771
 20
376.4748846714346
 30
0.0
  0
POINT
  5
8AC
330
618
100
AcDbEntity
  8
DEFPOINTS
 62
     0
100
AcDbPoint
 10
257.6959573632622
 20
402.4597109692837
 30
0.0
  0
POINT
  5
8AD
330
618
100
AcDbEntity
  8
DEFPOINTS
 62
     0
100
AcDbPoint
 10
429.0951337683837
 20
376.4748846714346
 30
0.0
  0
ENDBLK
  5
68D
330
618
100
AcDbEntity
  8
0
100
AcDbBlockEnd
  0
BLOCK
  5
68E
330
629
100
AcDbEntity
  8
0
100
AcDbBlockBegin
  2
*D13
 70
     1
 10
0.0
 20
0.0
 30
0.0
  3
*D13
  1

  0
LINE
  5
68F
330
629
100
AcDbEntity
  8
0
  6
BYBLOCK
 62
     0
100
AcDbLine
 10
652.6802079515405
 20
268.8792258793531
 30
0.0
 11
606.1606682232158
 21
268.8792258793531
 31
0.0
  0
LINE
  5
690
330
629
100
AcDbEntity
  8
0
  6
BYBLOCK
 62
     0
100
AcDbLine
 10
641.4818568398094
 20
344.8792258793531
 30
0.0
 11
606.1606682232158
 21
344.8792258793531
 31
0.0
  0
LINE
  5
691
330
629
100
AcDbEntity
  8
0
  6
BYBLOCK
 62
     0
100
AcDbLine
 10
607.4106682232158
 20
271.8792258793531
 30
0.0
 11
607.4106682232158
 21
341.8792258793531
 31
0.0
  0
SOLID
  5
692
330
629
100
AcDbEntity
  8
0
  6
BYBLOCK
 62
     0
100
AcDbTrace
 10
606.9106682232158
 20
271.8792258793531
 30
0.0
 11
607.9106682232158
 21
271.8792258793531
 31
0.0
 12
607.4106682232158
 22
268.8792258793531
 32
0.0
 13
607.4106682232158
 23
268.8792258793531
 33
0.0
  0
SOLID
  5
693
330
629
100
AcDbEntity
  8
0
  6
BYBLOCK
 62
     0
100
AcDbTrace
 10
606.9106682232158
 20
341.8792258793531
 30
0.0
 11
607.9106682232158
 21
341.8792258793531
 31
0.0
 12
607.4106682232158
 22
344.8792258793531
 32
0.0
 13
607.4106682232158
 23
344.8792258793531
 33
0.0
  0
MTEXT
  5
694
330
629
100
AcDbEntity
  8
0
  6
BYBLOCK
 62
     0
100
AcDbMText
 10
605.2856682232158
 20
306.8792258793531
 30
0.0
 40
3.0
 41
0.0
 71
     5
 72
     1
  1
\A1;76mm [2.9944"]
 11
0.0000000000000001
 21
1.0
 31
0.0
1001
ACAD
1000
MTEXTBEGIN
1070
    73
1070
     1
1070
    44
1040
1.0
1070
    74
1070
     0
1000
MTEXTEND
  0
POINT
  5
695
330
629
100
AcDbEntity
  8
DEFPOINTS
  6
BYBLOCK
 62
     0
100
AcDbPoint
 10
653.3052079515405
 20
268.8792258793531
 30
0.0
  0
POINT
  5
696
330
629
100
AcDbEntity
  8
DEFPOINTS
  6
BYBLOCK
 62
     0
100
AcDbPoint
 10
642.1068568398094
 20
344.8792258793531
 30
0.0
  0
POINT
  5
697
330
629
100
AcDbEntity
  8
DEFPOINTS
  6
BYBLOCK
 62
     0
100
AcDbPoint
 10
607.4106682232158
 20
344.8792258793531
 30
0.0
  0
ENDBLK
  5
698
330
629
100
AcDbEntity
  8
0
100
AcDbBlockEnd
  0
BLOCK
  5
699
330
635
100
AcDbEntity
  8
0
100
AcDbBlockBegin
  2
*D14
 70
     1
 10
0.0
 20
0.0
 30
0.0
  3
*D14
  1

  0
LINE
  5
69A
330
635
100
AcDbEntity
  8
0
  6
BYBLOCK
 62
     0
100
AcDbLine
 10
848.7617543368582
 20
321.039466424389
 30
0.0
 11
854.3420799213635
 21
352.6870654593407
 31
0.0
  0
LINE
  5
69B
330
635
100
AcDbEntity
  8
0
  6
BYBLOCK
 62
     0
100
AcDbLine
 10
720.7367464452714
 20
343.6137295210899
 30
0.0
 11
726.3170720297766
 21
375.2613285560416
 31
0.0
  0
LINE
  5
69C
330
635
100
AcDbEntity
  8
0
  6
BYBLOCK
 62
     0
100
AcDbLine
 10
851.1705964402432
 20
351.9770003010762
 30
0.0
 11
729.0544350667295
 21
373.5093743317755
 31
0.0
  0
SOLID
  5
69D
330
635
100
AcDbEntity
  8
0
  6
BYBLOCK
 62
     0
100
AcDbTrace
 10
851.2574205290768
 20
352.4694041775823
 30
0.0
 11
851.0837723514097
 21
351.4845964245701
 31
0.0
 12
854.1250196992798
 22
351.4560557680754
 32
0.0
 13
854.1250196992798
 23
351.4560557680754
 33
0.0
  0
SOLID
  5
69E
330
635
100
AcDbEntity
  8
0
  6
BYBLOCK
 62
     0
100
AcDbTrace
 10
729.141259155563
 20
374.0017782082816
 30
0.0
 11
728.967610977896
 21
373.0169704552694
 31
0.0
 12
726.1000118076928
 22
374.0303188647763
 32
0.0
 13
726.1000118076928
 23
374.0303188647763
 33
0.0
  0
MTEXT
  5
69F
330
635
100
AcDbEntity
  8
0
  6
BYBLOCK
 62
     0
100
AcDbMText
 10
790.4815181310284
 20
364.8359037915768
 30
0.0
 40
3.0
 41
0.0
 71
     5
 72
     1
  1
\A1;130mm [5.1220"]
 11
0.9848077530122081
 21
-0.1736481776669301
 31
0.0
1001
ACAD
1000
MTEXTBEGIN
1070
    73
1070
     1
1070
    44
1040
1.0
1070
    74
1070
     0
1000
MTEXTEND
  0
POINT
  5
6A0
330
635
100
AcDbEntity
  8
DEFPOINTS
  6
BYBLOCK
 62
     0
100
AcDbPoint
 10
848.6532242258165
 20
320.4239615787563
 30
0.0
  0
POINT
  5
6A1
330
635
100
AcDbEntity
  8
DEFPOINTS
  6
BYBLOCK
 62
     0
100
AcDbPoint
 10
720.6282163342295
 20
342.9982246754572
 30
0.0
  0
POINT
  5
6A2
330
635
100
AcDbEntity
  8
DEFPOINTS
  6
BYBLOCK
 62
     0
100
AcDbPoint
 10
726.1000118076928
 20
374.0303188647763
 30
0.0
  0
ENDBLK
  5
6A3
330
635
100
AcDbEntity
  8
0
100
AcDbBlockEnd
  0
BLOCK
  5
6A4
330
641
100
AcDbEntity
  8
0
100
AcDbBlockBegin
  2
*D15
 70
     1
 10
0.0
 20
0.0
 30
0.0
  3
*D15
  1

  0
LINE
  5
6A5
330
641
100
AcDbEntity
  8
0
  6
BYBLOCK
 62
     0
100
AcDbLine
 10
845.8073310778216
 20
321.5604109573896
 30
0.0
 11
849.4521919335211
 21
342.2314440633547
 31
0.0
  0
LINE
  5
6A6
330
641
100
AcDbEntity
  8
0
  6
BYBLOCK
 62
     0
100
AcDbLine
 10
723.6911697043078
 20
343.0927849880891
 30
0.0
 11
727.3360305600074
 21
363.7638180940542
 31
0.0
  0
LINE
  5
6A7
330
641
100
AcDbEntity
  8
0
  6
BYBLOCK
 62
     0
100
AcDbLine
 10
846.2807084524008
 20
341.5213789050903
 30
0.0
 11
730.0733935969604
 21
362.0118638697882
 31
0.0
  0
SOLID
  5
6A8
330
641
100
AcDbEntity
  8
0
  6
BYBLOCK
 62
     0
100
AcDbTrace
 10
846.3675325412344
 20
342.0137827815964
 30
0.0
 11
846.1938843635673
 21
341.0289750285842
 31
0.0
 12
849.2351317114374
 22
341.0004343720895
 32
0.0
 13
849.2351317114374
 23
341.0004343720895
 33
0.0
  0
SOLID
  5
6A9
330
641
100
AcDbEntity
  8
0
  6
BYBLOCK
 62
     0
100
AcDbTrace
 10
730.1602176857938
 20
362.5042677462943
 30
0.0
 11
729.9865695081268
 21
361.519459993282
 31
0.0
 12
727.1189703379238
 22
362.532808402789
 32
0.0
 13
727.1189703379238
 23
362.532808402789
 33
0.0
  0
MTEXT
  5
6AA
330
641
100
AcDbEntity
  8
0
  6
BYBLOCK
 62
     0
100
AcDbMText
 10
788.5460534022228
 20
353.8593378625902
 30
0.0
 40
3.0
 41
0.0
 71
     5
 72
     1
  1
\A1;124mm [4.8856"]
 11
0.9848077530122081
 21
-0.1736481776669311
 31
0.0
1001
ACAD
1000
MTEXTBEGIN
1070
    73
1070
     1
1070
    44
1040
1.0
1070
    74
1070
     0
1000
MTEXTEND
  0
POINT
  5
6AB
330
641
100
AcDbEntity
  8
DEFPOINTS
  6
BYBLOCK
 62
     0
100
AcDbPoint
 10
845.6988009667798
 20
320.944906111757
 30
0.0
  0
POINT
  5
6AC
330
641
100
AcDbEntity
  8
DEFPOINTS
  6
BYBLOCK
 62
     0
100
AcDbPoint
 10
723.582639593266
 20
342.4772801424564
 30
0.0
  0
POINT
  5
6AD
330
641
100
AcDbEntity
  8
DEFPOINTS
  6
BYBLOCK
 62
     0
100
AcDbPoint
 10
727.1189703379238
 20
362.532808402789
 30
0.0
  0
ENDBLK
  5
6AE
330
641
100
AcDbEntity
  8
0
100
AcDbBlockEnd
  0
BLOCK
  5
6AF
330
64D
100
AcDbEntity
  8
0
100
AcDbBlockBegin
  2
*D16
 70
     1
 10
0.0
 20
0.0
 30
0.0
  3
*D16
  1

  0
LINE
  5
6B0
330
64D
100
AcDbEntity
  8
0
  6
BYBLOCK
 62
     0
100
AcDbLine
 10
842.1261416013912
 20
319.8740227758472
 30
0.0
 11
844.3640758260023
 21
332.5659784573849
 31
0.0
  0
LINE
  5
6B1
330
64D
100
AcDbEntity
  8
0
  6
BYBLOCK
 62
     0
100
AcDbLine
 10
725.9188267459506
 20
340.364507740545
 30
0.0
 11
728.1567609705619
 21
353.0564634220827
 31
0.0
  0
LINE
  5
6B2
330
64D
100
AcDbEntity
  8
0
  6
BYBLOCK
 62
     0
100
AcDbLine
 10
841.1925923448821
 20
331.8559132991205
 30
0.0
 11
730.8941240075149
 21
351.3045091978167
 31
0.0
  0
SOLID
  5
6B3
330
64D
100
AcDbEntity
  8
0
  6
BYBLOCK
 62
     0
100
AcDbTrace
 10
841.2794164337155
 20
332.3483171756266
 30
0.0
 11
841.1057682560485
 21
331.3635094226144
 31
0.0
 12
844.1470156039187
 22
331.3349687661197
 32
0.0
 13
844.1470156039187
 23
331.3349687661197
 33
0.0
  0
SOLID
  5
6B4
330
64D
100
AcDbEntity
  8
0
  6
BYBLOCK
 62
     0
100
AcDbTrace
 10
730.9809480963483
 20
351.7969130743228
 30
0.0
 11
730.8072999186813
 21
350.8121053213106
 31
0.0
 12
727.9397007484782
 22
351.8254537308175
 32
0.0
 13
727.9397007484782
 23
351.8254537308175
 33
0.0
  0
MTEXT
  5
6B5
330
64D
100
AcDbEntity
  8
0
  6
BYBLOCK
 62
     0
100
AcDbMText
 10
786.4123605537407
 20
343.6729277236196
 30
0.0
 40
3.0
 41
0.0
 71
     5
 72
     1
  1
\A1;118mm [4.649"]
 11
0.9848077530122081
 21
-0.1736481776669301
 31
0.0
1001
ACAD
1000
MTEXTBEGIN
1070
    73
1070
     1
1070
    44
1040
1.0
1070
    74
1070
     0
1000
MTEXTEND
  0
POINT
  5
6B6
330
64D
100
AcDbEntity
  8
DEFPOINTS
  6
BYBLOCK
 62
     0
100
AcDbPoint
 10
842.0176114903494
 20
319.2585179302146
 30
0.0
  0
POINT
  5
6B7
330
64D
100
AcDbEntity
  8
DEFPOINTS
  6
BYBLOCK
 62
     0
100
AcDbPoint
 10
725.8102966349089
 20
339.7490028949123
 30
0.0
  0
POINT
  5
6B8
330
64D
100
AcDbEntity
  8
DEFPOINTS
  6
BYBLOCK
 62
     0
100
AcDbPoint
 10
727.9397007484782
 20
351.8254537308175
 30
0.0
  0
ENDBLK
  5
6B9
330
64D
100
AcDbEntity
  8
0
100
AcDbBlockEnd
  0
BLOCK
  5
6BA
330
659
100
AcDbEntity
  8
0
100
AcDbBlockBegin
  2
*D17
 70
     1
 10
0.0
 20
0.0
 30
0.0
  3
*D17
  1

  0
LINE
  5
6BB
330
659
100
AcDbEntity
  8
0
  6
BYBLOCK
 62
     0
100
AcDbLine
 10
660.5240666836217
 20
276.3792258793531
 30
0.0
 11
687.7570240028136
 21
276.3792258793531
 31
0.0
  0
LINE
  5
6BC
330
659
100
AcDbEntity
  8
0
  6
BYBLOCK
 62
     0
100
AcDbLine
 10
660.5240666836217
 20
268.8792258793531
 30
0.0
 11
687.7570240028136
 21
268.8792258793531
 31
0.0
  0
LINE
  5
6BD
330
659
100
AcDbEntity
  8
0
  6
BYBLOCK
 62
     0
100
AcDbLine
 10
686.5070240028136
 20
273.3792258793531
 30
0.0
 11
686.5070240028136
 21
271.8792258793531
 31
0.0
  0
LINE
  5
6BE
330
659
100
AcDbEntity
  8
0
  6
BYBLOCK
 62
     0
100
AcDbLine
 10
686.5070240028136
 20
268.8792258793531
 30
0.0
 11
686.5070240028136
 21
228.1292258793532
 31
0.0
  0
SOLID
  5
6BF
330
659
100
AcDbEntity
  8
0
  6
BYBLOCK
 62
     0
100
AcDbTrace
 10
686.0070240028136
 20
273.3792258793531
 30
0.0
 11
687.0070240028136
 21
273.3792258793531
 31
0.0
 12
686.5070240028136
 22
276.3792258793531
 32
0.0
 13
686.5070240028136
 23
276.3792258793531
 33
0.0
  0
SOLID
  5
6C0
330
659
100
AcDbEntity
  8
0
  6
BYBLOCK
 62
     0
100
AcDbTrace
 10
686.0070240028136
 20
271.8792258793531
 30
0.0
 11
687.0070240028136
 21
271.8792258793531
 31
0.0
 12
686.5070240028136
 22
268.8792258793531
 32
0.0
 13
686.5070240028136
 23
268.8792258793531
 33
0.0
  0
MTEXT
  5
6C1
330
659
100
AcDbEntity
  8
0
  6
BYBLOCK
 62
     0
100
AcDbMText
 10
684.3820240028136
 20
247.0042258793531
 30
0.0
 40
3.0
 41
0.0
 71
     5
 72
     1
  1
\A1;7.5mm [0.2955"]
 11
0.0000000000000001
 21
1.0
 31
0.0
1001
ACAD
1000
MTEXTBEGIN
1070
    73
1070
     1
1070
    44
1040
1.0
1070
    74
1070
     0
1000
MTEXTEND
  0
POINT
  5
6C2
330
659
100
AcDbEntity
  8
DEFPOINTS
  6
BYBLOCK
 62
     0
100
AcDbPoint
 10
659.8990666836217
 20
276.3792258793531
 30
0.0
  0
POINT
  5
6C3
330
659
100
AcDbEntity
  8
DEFPOINTS
  6
BYBLOCK
 62
     0
100
AcDbPoint
 10
659.8990666836217
 20
268.8792258793531
 30
0.0
  0
POINT
  5
6C4
330
659
100
AcDbEntity
  8
DEFPOINTS
  6
BYBLOCK
 62
     0
100
AcDbPoint
 10
686.5070240028136
 20
268.8792258793531
 30
0.0
  0
ENDBLK
  5
6C5
330
659
100
AcDbEntity
  8
0
100
AcDbBlockEnd
  0
BLOCK
  5
6C6
330
666
100
AcDbEntity
  8
0
100
AcDbBlockBegin
  2
*D18
 70
     1
 10
0.0
 20
0.0
 30
0.0
  3
*D18
  1

  0
LINE
  5
6C7
330
666
100
AcDbEntity
  8
0
  6
BYBLOCK
 62
     0
100
AcDbLine
 10
641.1818568398095
 20
288.8792258793531
 30
0.0
 11
627.5045636046672
 21
288.8792258793531
 31
0.0
  0
LINE
  5
6C8
330
666
100
AcDbEntity
  8
0
  6
BYBLOCK
 62
     0
100
AcDbLine
 10
652.6802079515405
 20
268.8792258793531
 30
0.0
 11
627.5045636046672
 21
268.8792258793531
 31
0.0
  0
LINE
  5
6C9
330
666
100
AcDbEntity
  8
0
  6
BYBLOCK
 62
     0
100
AcDbLine
 10
628.7545636046672
 20
285.8792258793531
 30
0.0
 11
628.7545636046672
 21
271.8792258793531
 31
0.0
  0
LINE
  5
6CA
330
666
100
AcDbEntity
  8
0
  6
BYBLOCK
 62
     0
100
AcDbLine
 10
628.7545636046672
 20
268.8792258793531
 30
0.0
 11
628.7545636046672
 21
230.1292258793532
 31
0.0
  0
SOLID
  5
6CB
330
666
100
AcDbEntity
  8
0
  6
BYBLOCK
 62
     0
100
AcDbTrace
 10
628.2545636046672
 20
285.8792258793531
 30
0.0
 11
629.2545636046672
 21
285.8792258793531
 31
0.0
 12
628.7545636046672
 22
288.8792258793531
 32
0.0
 13
628.7545636046672
 23
288.8792258793531
 33
0.0
  0
SOLID
  5
6CC
330
666
100
AcDbEntity
  8
0
  6
BYBLOCK
 62
     0
100
AcDbTrace
 10
628.2545636046672
 20
271.8792258793531
 30
0.0
 11
629.2545636046672
 21
271.8792258793531
 31
0.0
 12
628.7545636046672
 22
268.8792258793531
 32
0.0
 13
628.7545636046672
 23
268.8792258793531
 33
0.0
  0
MTEXT
  5
6CD
330
666
100
AcDbEntity
  8
0
  6
BYBLOCK
 62
     0
100
AcDbMText
 10
626.6295636046672
 20
248.0042258793532
 30
0.0
 40
3.0
 41
0.0
 71
     5
 72
     1
  1
\A1;20mm [0.7880"]
 11
0.0000000000000001
 21
1.0
 31
0.0
1001
ACAD
1000
MTEXTBEGIN
1070
    73
1070
     1
1070
    44
1040
1.0
1070
    74
1070
     0
1000
MTEXTEND
  0
POINT
  5
6CE
330
666
100
AcDbEntity
  8
DEFPOINTS
  6
BYBLOCK
 62
     0
100
AcDbPoint
 10
641.8068568398094
 20
288.8792258793531
 30
0.0
  0
POINT
  5
6CF
330
666
100
AcDbEntity
  8
DEFPOINTS
  6
BYBLOCK
 62
     0
100
AcDbPoint
 10
653.3052079515405
 20
268.8792258793531
 30
0.0
  0
POINT
  5
6D0
330
666
100
AcDbEntity
  8
DEFPOINTS
  6
BYBLOCK
 62
     0
100
AcDbPoint
 10
628.7545636046672
 20
268.8792258793531
 30
0.0
  0
ENDBLK
  5
6D1
330
666
100
AcDbEntity
  8
0
100
AcDbBlockEnd
  0
BLOCK
  5
777
330
76D
100
AcDbEntity
  8
0
100
AcDbBlockBegin
  2
*D19
 70
     1
 10
0.0
 20
0.0
 30
0.0
  3
*D19
  1

  0
LINE
  5
76E
330
76D
100
AcDbEntity
  8
0
  6
BYBLOCK
 62
     0
100
AcDbLine
 10
-53.75748177304524
 20
163.5456444805971
 30
0.0
 11
-53.75748177304524
 21
171.1708234663398
 31
0.0
  0
LINE
  5
76F
330
76D
100
AcDbEntity
  8
0
  6
BYBLOCK
 62
     0
100
AcDbLine
 10
146.2425182269547
 20
163.5456444805971
 30
0.0
 11
146.2425182269547
 21
171.1708234663398
 31
0.0
  0
LINE
  5
770
330
76D
100
AcDbEntity
  8
0
  6
BYBLOCK
 62
     0
100
AcDbLine
 10
-50.75748177304524
 20
169.9208234663398
 30
0.0
 11
143.2425182269547
 21
169.9208234663398
 31
0.0
  0
SOLID
  5
771
330
76D
100
AcDbEntity
  8
0
  6
BYBLOCK
 62
     0
100
AcDbTrace
 10
-50.75748177304524
 20
170.4208234663398
 30
0.0
 11
-50.75748177304524
 21
169.4208234663398
 31
0.0
 12
-53.75748177304524
 22
169.9208234663398
 32
0.0
 13
-53.75748177304524
 23
169.9208234663398
 33
0.0
  0
SOLID
  5
772
330
76D
100
AcDbEntity
  8
0
  6
BYBLOCK
 62
     0
100
AcDbTrace
 10
143.2425182269547
 20
170.4208234663398
 30
0.0
 11
143.2425182269547
 21
169.4208234663398
 31
0.0
 12
146.2425182269547
 22
169.9208234663398
 32
0.0
 13
146.2425182269547
 23
169.9208234663398
 33
0.0
  0
MTEXT
  5
773
330
76D
100
AcDbEntity
  8
0
  6
BYBLOCK
 62
     0
100
AcDbMText
 10
46.24251822695476
 20
172.831537752054
 30
0.0
 40
3.0
 41
0.0
 71
     5
 72
     1
  1
\A1;200mm [7.8800"]
1001
ACAD
1000
MTEXTBEGIN
1070
    73
1070
     1
1070
    44
1040
1.0
1070
    74
1070
     0
1000
MTEXTEND
  0
POINT
  5
774
330
76D
100
AcDbEntity
  8
DEFPOINTS
  6
BYBLOCK
 62
     0
100
AcDbPoint
 10
-53.75748177304524
 20
162.9206444805971
 30
0.0
  0
POINT
  5
775
330
76D
100
AcDbEntity
  8
DEFPOINTS
  6
BYBLOCK
 62
     0
100
AcDbPoint
 10
146.2425182269547
 20
162.9206444805971
 30
0.0
  0
POINT
  5
776
330
76D
100
AcDbEntity
  8
DEFPOINTS
  6
BYBLOCK
 62
     0
100
AcDbPoint
 10
146.2425182269547
 20
169.9208234663398
 30
0.0
  0
ENDBLK
  5
778
330
76D
100
AcDbEntity
  8
0
100
AcDbBlockEnd
  0
BLOCK
  5
783
330
779
100
AcDbEntity
  8
0
100
AcDbBlockBegin
  2
*D20
 70
     1
 10
0.0
 20
0.0
 30
0.0
  3
*D20
  1

  0
LINE
  5
77A
330
779
100
AcDbEntity
  8
0
  6
BYBLOCK
 62
     0
100
AcDbLine
 10
-54.38248177304524
 20
32.92064448059716
 30
0.0
 11
-67.49919672851582
 21
32.92064448059717
 31
0.0
  0
LINE
  5
77B
330
779
100
AcDbEntity
  8
0
  6
BYBLOCK
 62
     0
100
AcDbLine
 10
-54.38248177304524
 20
162.9206444805971
 30
0.0
 11
-67.49919672851581
 21
162.9206444805971
 31
0.0
  0
LINE
  5
77C
330
779
100
AcDbEntity
  8
0
  6
BYBLOCK
 62
     0
100
AcDbLine
 10
-66.24919672851582
 20
35.92064448059717
 30
0.0
 11
-66.24919672851581
 21
159.9206444805971
 31
0.0
  0
SOLID
  5
77D
330
779
100
AcDbEntity
  8
0
  6
BYBLOCK
 62
     0
100
AcDbTrace
 10
-66.74919672851583
 20
35.92064448059717
 30
0.0
 11
-65.74919672851582
 21
35.92064448059717
 31
0.0
 12
-66.24919672851582
 22
32.92064448059717
 32
0.0
 13
-66.24919672851582
 23
32.92064448059717
 33
0.0
  0
SOLID
  5
77E
330
779
100
AcDbEntity
  8
0
  6
BYBLOCK
 62
     0
100
AcDbTrace
 10
-66.74919672851581
 20
159.9206444805971
 30
0.0
 11
-65.74919672851581
 21
159.9206444805971
 31
0.0
 12
-66.24919672851581
 22
162.9206444805971
 32
0.0
 13
-66.24919672851581
 23
162.9206444805971
 33
0.0
  0
MTEXT
  5
77F
330
779
100
AcDbEntity
  8
0
  6
BYBLOCK
 62
     0
100
AcDbMText
 10
-69.15991101423012
 20
97.92064448059717
 30
0.0
 40
3.0
 41
0.0
 71
     5
 72
     1
  1
\A1;130mm [5.1220"]
 11
0.0000000000000001
 21
1.0
 31
0.0
1001
ACAD
1000
MTEXTBEGIN
1070
    73
1070
     1
1070
    44
1040
1.0
1070
    74
1070
     0
1000
MTEXTEND
  0
POINT
  5
780
330
779
100
AcDbEntity
  8
DEFPOINTS
  6
BYBLOCK
 62
     0
100
AcDbPoint
 10
-53.75748177304524
 20
32.92064448059716
 30
0.0
  0
POINT
  5
781
330
779
100
AcDbEntity
  8
DEFPOINTS
  6
BYBLOCK
 62
     0
100
AcDbPoint
 10
-53.75748177304524
 20
162.9206444805971
 30
0.0
  0
POINT
  5
782
330
779
100
AcDbEntity
  8
DEFPOINTS
  6
BYBLOCK
 62
     0
100
AcDbPoint
 10
-66.24919672851581
 20
162.9206444805971
 30
0.0
  0
ENDBLK
  5
784
330
779
100
AcDbEntity
  8
0
100
AcDbBlockEnd
  0
BLOCK
  5
78F
330
785
100
AcDbEntity
  8
0
100
AcDbBlockBegin
  2
*D21
 70
     1
 10
0.0
 20
0.0
 30
0.0
  3
*D21
  1

  0
LINE
  5
786
330
785
100
AcDbEntity
  8
0
  6
BYBLOCK
 62
     0
100
AcDbLine
 10
-48.25748177304524
 20
39.04564448059716
 30
0.0
 11
-48.25748177304524
 21
51.85857591629508
 31
0.0
  0
LINE
  5
787
330
785
100
AcDbEntity
  8
0
  6
BYBLOCK
 62
     0
100
AcDbLine
 10
140.7425182269547
 20
39.04564448059716
 30
0.0
 11
140.7425182269547
 21
51.85857591629508
 31
0.0
  0
LINE
  5
788
330
785
100
AcDbEntity
  8
0
  6
BYBLOCK
 62
     0
100
AcDbLine
 10
-45.25748177304524
 20
50.60857591629508
 30
0.0
 11
137.7425182269547
 21
50.60857591629508
 31
0.0
  0
SOLID
  5
789
330
785
100
AcDbEntity
  8
0
  6
BYBLOCK
 62
     0
100
AcDbTrace
 10
-45.25748177304524
 20
51.10857591629508
 30
0.0
 11
-45.25748177304524
 21
50.10857591629508
 31
0.0
 12
-48.25748177304524
 22
50.60857591629508
 32
0.0
 13
-48.25748177304524
 23
50.60857591629508
 33
0.0
  0
SOLID
  5
78A
330
785
100
AcDbEntity
  8
0
  6
BYBLOCK
 62
     0
100
AcDbTrace
 10
137.7425182269547
 20
51.10857591629508
 30
0.0
 11
137.7425182269547
 21
50.10857591629508
 31
0.0
 12
140.7425182269547
 22
50.60857591629508
 32
0.0
 13
140.7425182269547
 23
50.60857591629508
 33
0.0
  0
MTEXT
  5
78B
330
785
100
AcDbEntity
  8
0
  6
BYBLOCK
 62
     0
100
AcDbMText
 10
46.24251822695476
 20
53.51929020200937
 30
0.0
 40
3.0
 41
0.0
 71
     5
 72
     1
  1
\A1;189mm [7.4466"]
1001
ACAD
1000
MTEXTBEGIN
1070
    73
1070
     1
1070
    44
1040
1.0
1070
    74
1070
     0
1000
MTEXTEND
  0
POINT
  5
78C
330
785
100
AcDbEntity
  8
DEFPOINTS
  6
BYBLOCK
 62
     0
100
AcDbPoint
 10
-48.25748177304524
 20
38.42064448059716
 30
0.0
  0
POINT
  5
78D
330
785
100
AcDbEntity
  8
DEFPOINTS
  6
BYBLOCK
 62
     0
100
AcDbPoint
 10
140.7425182269547
 20
38.42064448059716
 30
0.0
  0
POINT
  5
78E
330
785
100
AcDbEntity
  8
DEFPOINTS
  6
BYBLOCK
 62
     0
100
AcDbPoint
 10
140.7425182269547
 20
50.60857591629508
 30
0.0
  0
ENDBLK
  5
790
330
785
100
AcDbEntity
  8
0
100
AcDbBlockEnd
  0
BLOCK
  5
79B
330
791
100
AcDbEntity
  8
0
100
AcDbBlockBegin
  2
*D22
 70
     1
 10
0.0
 20
0.0
 30
0.0
  3
*D22
  1

  0
LINE
  5
792
330
791
100
AcDbEntity
  8
0
  6
BYBLOCK
 62
     0
100
AcDbLine
 10
141.3675182269547
 20
38.42064448059716
 30
0.0
 11
160.7057577384968
 21
38.42064448059716
 31
0.0
  0
LINE
  5
793
330
791
100
AcDbEntity
  8
0
  6
BYBLOCK
 62
     0
100
AcDbLine
 10
141.3675182269547
 20
157.4206444805971
 30
0.0
 11
160.7057577384968
 21
157.4206444805971
 31
0.0
  0
LINE
  5
794
330
791
100
AcDbEntity
  8
0
  6
BYBLOCK
 62
     0
100
AcDbLine
 10
159.4557577384968
 20
41.42064448059715
 30
0.0
 11
159.4557577384968
 21
154.4206444805971
 31
0.0
  0
SOLID
  5
795
330
791
100
AcDbEntity
  8
0
  6
BYBLOCK
 62
     0
100
AcDbTrace
 10
158.9557577384967
 20
41.42064448059715
 30
0.0
 11
159.9557577384967
 21
41.42064448059715
 31
0.0
 12
159.4557577384968
 22
38.42064448059716
 32
0.0
 13
159.4557577384968
 23
38.42064448059716
 33
0.0
  0
SOLID
  5
796
330
791
100
AcDbEntity
  8
0
  6
BYBLOCK
 62
     0
100
AcDbTrace
 10
158.9557577384967
 20
154.4206444805971
 30
0.0
 11
159.9557577384967
 21
154.4206444805971
 31
0.0
 12
159.4557577384968
 22
157.4206444805971
 32
0.0
 13
159.4557577384968
 23
157.4206444805971
 33
0.0
  0
MTEXT
  5
797
330
791
100
AcDbEntity
  8
0
  6
BYBLOCK
 62
     0
100
AcDbMText
 10
156.5450434527825
 20
97.92064448059715
 30
0.0
 40
3.0
 41
0.0
 71
     5
 72
     1
  1
\A1;119mm [4.6886"]
 11
0.0000000000000001
 21
1.0
 31
0.0
1001
ACAD
1000
MTEXTBEGIN
1070
    73
1070
     1
1070
    44
1040
1.0
1070
    74
1070
     0
1000
MTEXTEND
  0
POINT
  5
798
330
791
100
AcDbEntity
  8
DEFPOINTS
  6
BYBLOCK
 62
     0
100
AcDbPoint
 10
140.7425182269547
 20
38.42064448059716
 30
0.0
  0
POINT
  5
799
330
791
100
AcDbEntity
  8
DEFPOINTS
  6
BYBLOCK
 62
     0
100
AcDbPoint
 10
140.7425182269547
 20
157.4206444805971
 30
0.0
  0
POINT
  5
79A
330
791
100
AcDbEntity
  8
DEFPOINTS
  6
BYBLOCK
 62
     0
100
AcDbPoint
 10
159.4557577384968
 20
157.4206444805971
 30
0.0
  0
ENDBLK
  5
79C
330
791
100
AcDbEntity
  8
0
100
AcDbBlockEnd
  0
BLOCK
  5
7AE
330
79D
100
AcDbEntity
  8
0
100
AcDbBlockBegin
  2
A$C28B57436
 70
     0
 10
0.0
 20
0.0
 30
0.0
  3
A$C28B57436
  1

  0
DIMENSION
  5
79E
330
79D
100
AcDbEntity
  8
DIM
100
AcDbDimension
  2
*D22
 10
231.1870973913365
 20
124.5
 30
0.0
 11
228.2763831056223
 21
64.99999999999999
 31
0.0
 12
71.73133965283978
 22
-32.92064448059716
 32
0.0
  3
STANDARD
100
AcDbAlignedDimension
 13
212.4738578797945
 23
5.5
 33
0.0
 14
212.4738578797945
 24
124.5
 34
0.0
 50
90.0
100
AcDbRotatedDimension
1001
ACAD
1000
DSTYLE
1002
{
1070
    78
1070
     8
1070
   140
1040
3.0
1070
    74
1070
     0
1070
   172
1070
     1
1070
    73
1070
     0
1070
    77
1070
     1
1070
     3
1000
mm
1070
   147
1040
0.625
1070
    42
1040
0.625
1070
    44
1040
1.25
1070
    43
1040
3.75
1070
   271
1070
     2
1070
   141
1040
2.5
1070
    41
1040
3.0
1070
     4
1000
"
1070
   273
1070
     8
1070
   274
1070
     4
1070
   143
1040
0.0394
1070
   171
1070
     4
1070
   170
1070
     1
1002
}
  0
DIMENSION
  5
79F
330
79D
100
AcDbEntity
  8
DIM
100
AcDbDimension
  2
*D20
 10
5.482142924323966
 20
130.0
 30
0.0
 11
2.57142863860966
 21
65.0
 31
0.0
 12
71.73133965283978
 22
-32.92064448059716
 32
0.0
  3
STANDARD
100
AcDbAlignedDimension
 13
17.97385787979453
 23
0.0
 33
0.0
 14
17.97385787979453
 24
130.0
 34
0.0
 50
90.0
100
AcDbRotatedDimension
1001
ACAD
1000
DSTYLE
1002
{
1070
    78
1070
     8
1070
   140
1040
3.0
1070
    74
1070
     0
1070
   172
1070
     1
1070
    73
1070
     0
1070
    77
1070
     1
1070
     3
1000
mm
1070
   147
1040
0.625
1070
    42
1040
0.625
1070
    44
1040
1.25
1070
    43
1040
3.75
1070
   271
1070
     2
1070
   141
1040
2.5
1070
    41
1040
3.0
1070
     4
1000
"
1070
   273
1070
     8
1070
   274
1070
     4
1070
   143
1040
0.0394
1070
   171
1070
     4
1070
   170
1070
     1
1002
}
  0
LINE
  5
7A0
330
79D
100
AcDbEntity
  8
PART
100
AcDbLine
 10
17.97385787979453
 20
130.0
 30
0.0
 11
17.97385787979453
 21
0.0
 31
0.0
  0
LINE
  5
7A1
330
79D
100
AcDbEntity
  8
PART
100
AcDbLine
 10
217.9738578797945
 20
0.0
 30
0.0
 11
217.9738578797945
 21
130.0
 31
0.0
  0
DIMENSION
  5
7A2
330
79D
100
AcDbEntity
  8
DIM
100
AcDbDimension
  2
*D21
 10
212.4738578797945
 20
17.68793143569792
 30
0.0
 11
117.9738578797945
 21
20.5986457214122
 31
0.0
 12
71.73133965283978
 22
-32.92064448059716
 32
0.0
  3
STANDARD
100
AcDbAlignedDimension
 13
23.47385787979453
 23
5.5
 33
0.0
 14
212.4738578797945
 24
5.5
 34
0.0
100
AcDbRotatedDimension
1001
ACAD
1000
DSTYLE
1002
{
1070
    78
1070
     8
1070
   140
1040
3.0
1070
    74
1070
     0
1070
   172
1070
     1
1070
    73
1070
     0
1070
    77
1070
     1
1070
     3
1000
mm
1070
   147
1040
0.625
1070
    42
1040
0.625
1070
    44
1040
1.25
1070
    43
1040
3.75
1070
   271
1070
     2
1070
   141
1040
2.5
1070
    41
1040
3.0
1070
     4
1000
"
1070
   273
1070
     8
1070
   274
1070
     4
1070
   143
1040
0.0394
1070
   171
1070
     4
1070
   170
1070
     1
1002
}
  0
LINE
  5
7A3
330
79D
100
AcDbEntity
  8
PART
100
AcDbLine
 10
17.97385787979453
 20
0.0
 30
0.0
 11
217.9738578797945
 21
0.0
 31
0.0
  0
CIRCLE
  5
7A4
330
79D
100
AcDbEntity
  8
PART
100
AcDbCircle
 10
23.47385787979453
 20
5.5
 30
0.0
 40
1.5
  0
CIRCLE
  5
7A5
330
79D
100
AcDbEntity
  8
PART
100
AcDbCircle
 10
23.47385787979453
 20
5.5
 30
0.0
 40
3.0
  0
CIRCLE
  5
7A6
330
79D
100
AcDbEntity
  8
PART
100
AcDbCircle
 10
212.4738578797945
 20
5.5
 30
0.0
 40
1.5
  0
CIRCLE
  5
7A7
330
79D
100
AcDbEntity
  8
PART
100
AcDbCircle
 10
212.4738578797945
 20
5.5
 30
0.0
 40
3.0
  0
DIMENSION
  5
7A8
330
79D
100
AcDbEntity
  8
DIM
100
AcDbDimension
  2
*D19
 10
217.9738578797945
 20
137.0001789857426
 30
0.0
 11
117.9738578797945
 21
139.9108932714569
 31
0.0
 12
71.73133965283978
 22
-32.92064448059716
 32
0.0
  3
STANDARD
100
AcDbAlignedDimension
 13
17.97385787979453
 23
130.0
 33
0.0
 14
217.9738578797945
 24
130.0
 34
0.0
100
AcDbRotatedDimension
1001
ACAD
1000
DSTYLE
1002
{
1070
    78
1070
     8
1070
   140
1040
3.0
1070
    74
1070
     0
1070
   172
1070
     1
1070
    73
1070
     0
1070
    77
1070
     1
1070
     3
1000
mm
1070
   147
1040
0.625
1070
    42
1040
0.625
1070
    44
1040
1.25
1070
    43
1040
3.75
1070
   271
1070
     2
1070
   141
1040
2.5
1070
    41
1040
3.0
1070
     4
1000
"
1070
   273
1070
     8
1070
   274
1070
     4
1070
   143
1040
0.0394
1070
   171
1070
     4
1070
   170
1070
     1
1002
}
  0
LINE
  5
7A9
330
79D
100
AcDbEntity
  8
PART
100
AcDbLine
 10
217.9738578797945
 20
130.0
 30
0.0
 11
17.97385787979453
 21
130.0
 31
0.0
  0
CIRCLE
  5
7AA
330
79D
100
AcDbEntity
  8
PART
100
AcDbCircle
 10
23.47385787979453
 20
124.5
 30
0.0
 40
3.0
  0
CIRCLE
  5
7AB
330
79D
100
AcDbEntity
  8
PART
100
AcDbCircle
 10
23.47385787979453
 20
124.5
 30
0.0
 40
1.5
  0
CIRCLE
  5
7AC
330
79D
100
AcDbEntity
  8
PART
100
AcDbCircle
 10
212.4738578797945
 20
124.5
 30
0.0
 40
3.0
  0
CIRCLE
  5
7AD
330
79D
100
AcDbEntity
  8
PART
100
AcDbCircle
 10
212.4738578797945
 20
124.5
 30
0.0
 40
1.5
  0
ENDBLK
  5
7AF
330
79D
100
AcDbEntity
  8
0
100
AcDbBlockEnd
  0
BLOCK
  5
7FC
330
7F2
100
AcDbEntity
  8
0
100
AcDbBlockBegin
  2
*D24
 70
     1
 10
0.0
 20
0.0
 30
0.0
  3
*D24
  1

  0
LINE
  5
7F3
330
7F2
100
AcDbEntity
  8
0
  6
BYBLOCK
 62
     0
100
AcDbLine
 10
-27.70560247311346
 20
123.5473991651536
 30
0.0
 11
-27.70560247311346
 21
143.083147336565
 31
0.0
  0
LINE
  5
7F4
330
7F2
100
AcDbEntity
  8
0
  6
BYBLOCK
 62
     0
100
AcDbLine
 10
154.2943975268865
 20
123.5473991651536
 30
0.0
 11
154.2943975268865
 21
143.083147336565
 31
0.0
  0
LINE
  5
7F5
330
7F2
100
AcDbEntity
  8
0
  6
BYBLOCK
 62
     0
100
AcDbLine
 10
-24.70560247311345
 20
141.833147336565
 30
0.0
 11
151.2943975268865
 21
141.833147336565
 31
0.0
  0
SOLID
  5
7F6
330
7F2
100
AcDbEntity
  8
0
  6
BYBLOCK
 62
     0
100
AcDbTrace
 10
-24.70560247311345
 20
142.3331473365649
 30
0.0
 11
-24.70560247311345
 21
141.3331473365649
 31
0.0
 12
-27.70560247311346
 22
141.833147336565
 32
0.0
 13
-27.70560247311346
 23
141.833147336565
 33
0.0
  0
SOLID
  5
7F7
330
7F2
100
AcDbEntity
  8
0
  6
BYBLOCK
 62
     0
100
AcDbTrace
 10
151.2943975268865
 20
142.3331473365649
 30
0.0
 11
151.2943975268865
 21
141.3331473365649
 31
0.0
 12
154.2943975268865
 22
141.833147336565
 32
0.0
 13
154.2943975268865
 23
141.833147336565
 33
0.0
  0
MTEXT
  5
7F8
330
7F2
100
AcDbEntity
  8
0
  6
BYBLOCK
 62
     0
100
AcDbMText
 10
63.29439752688654
 20
144.7438616222792
 30
0.0
 40
3.0
 41
0.0
 71
     5
 72
     1
  1
\A1;182mm [7.171"]
1001
ACAD
1000
MTEXTBEGIN
1070
    73
1070
     1
1070
    44
1040
1.0
1070
    74
1070
     0
1000
MTEXTEND
  0
POINT
  5
7F9
330
7F2
100
AcDbEntity
  8
DEFPOINTS
  6
BYBLOCK
 62
     0
100
AcDbPoint
 10
-27.70560247311346
 20
122.9223991651536
 30
0.0
  0
POINT
  5
7FA
330
7F2
100
AcDbEntity
  8
DEFPOINTS
  6
BYBLOCK
 62
     0
100
AcDbPoint
 10
154.2943975268865
 20
122.9223991651536
 30
0.0
  0
POINT
  5
7FB
330
7F2
100
AcDbEntity
  8
DEFPOINTS
  6
BYBLOCK
 62
     0
100
AcDbPoint
 10
154.2943975268865
 20
141.833147336565
 30
0.0
  0
ENDBLK
  5
7FD
330
7F2
100
AcDbEntity
  8
0
100
AcDbBlockEnd
  0
BLOCK
  5
809
330
7FE
100
AcDbEntity
  8
0
100
AcDbBlockBegin
  2
*D25
 70
     1
 10
0.0
 20
0.0
 30
0.0
  3
*D25
  1

  0
LINE
  5
7FF
330
7FE
100
AcDbEntity
  8
0
  6
BYBLOCK
 62
     0
100
AcDbLine
 10
154.9193975268865
 20
103.9223991651536
 30
0.0
 11
185.0194772794923
 21
103.9223991651536
 31
0.0
  0
LINE
  5
800
330
7FE
100
AcDbEntity
  8
0
  6
BYBLOCK
 62
     0
100
AcDbLine
 10
151.9193975268865
 20
125.9223991651536
 30
0.0
 11
185.0194772794923
 21
125.9223991651536
 31
0.0
  0
LINE
  5
801
330
7FE
100
AcDbEntity
  8
0
  6
BYBLOCK
 62
     0
100
AcDbLine
 10
183.7694772794923
 20
106.9223991651536
 30
0.0
 11
183.7694772794923
 21
122.9223991651536
 31
0.0
  0
LINE
  5
802
330
7FE
100
AcDbEntity
  8
0
  6
BYBLOCK
 62
     0
100
AcDbLine
 10
183.7694772794923
 20
125.9223991651536
 30
0.0
 11
183.7694772794923
 21
165.1723991651536
 31
0.0
  0
SOLID
  5
803
330
7FE
100
AcDbEntity
  8
0
  6
BYBLOCK
 62
     0
100
AcDbTrace
 10
183.2694772794923
 20
106.9223991651536
 30
0.0
 11
184.2694772794923
 21
106.9223991651536
 31
0.0
 12
183.7694772794923
 22
103.9223991651536
 32
0.0
 13
183.7694772794923
 23
103.9223991651536
 33
0.0
  0
SOLID
  5
804
330
7FE
100
AcDbEntity
  8
0
  6
BYBLOCK
 62
     0
100
AcDbTrace
 10
183.2694772794923
 20
122.9223991651536
 30
0.0
 11
184.2694772794923
 21
122.9223991651536
 31
0.0
 12
183.7694772794923
 22
125.9223991651536
 32
0.0
 13
183.7694772794923
 23
125.9223991651536
 33
0.0
  0
MTEXT
  5
805
330
7FE
100
AcDbEntity
  8
0
  6
BYBLOCK
 62
     0
100
AcDbMText
 10
180.858762993778
 20
147.0473991651536
 30
0.0
 40
3.0
 41
0.0
 71
     5
 72
     1
  1
\A1;22mm [0.867"]
 11
0.0000000000000001
 21
1.0
 31
0.0
1001
ACAD
1000
MTEXTBEGIN
1070
    73
1070
     1
1070
    44
1040
1.0
1070
    74
1070
     0
1000
MTEXTEND
  0
POINT
  5
806
330
7FE
100
AcDbEntity
  8
DEFPOINTS
  6
BYBLOCK
 62
     0
100
AcDbPoint
 10
154.2943975268865
 20
103.9223991651536
 30
0.0
  0
POINT
  5
807
330
7FE
100
AcDbEntity
  8
DEFPOINTS
  6
BYBLOCK
 62
     0
100
AcDbPoint
 10
151.2943975268865
 20
125.9223991651536
 30
0.0
  0
POINT
  5
808
330
7FE
100
AcDbEntity
  8
DEFPOINTS
  6
BYBLOCK
 62
     0
100
AcDbPoint
 10
183.7694772794923
 20
125.9223991651536
 30
0.0
  0
ENDBLK
  5
80A
330
7FE
100
AcDbEntity
  8
0
100
AcDbBlockEnd
  0
BLOCK
  5
83E
330
80B
100
AcDbEntity
  8
0
100
AcDbBlockBegin
  2
A$C7E4B782B
 70
     0
 10
0.0
 20
0.0
 30
0.0
  3
A$C7E4B782B
  1

  0
DIMENSION
  5
80C
330
80B
100
AcDbEntity
  8
PART
100
AcDbDimension
  2
*D25
 10
233.9750799840674
 20
46.70458700883183
 30
0.0
 11
231.0643656983531
 21
67.82958700883185
 31
0.0
 12
50.20560270457508
 22
-79.21781215632177
 32
0.0
  3
STANDARD
100
AcDbAlignedDimension
 13
204.5000002314616
 23
24.70458700883185
 33
0.0
 14
201.5000002314616
 24
46.70458700883183
 34
0.0
 50
90.0
100
AcDbRotatedDimension
1001
ACAD
1000
DSTYLE
1002
{
1070
    78
1070
     8
1070
   140
1040
3.0
1070
    74
1070
     0
1070
   172
1070
     1
1070
    73
1070
     0
1070
    77
1070
     1
1070
     3
1000
mm
1070
   147
1040
0.625
1070
    42
1040
0.625
1070
    44
1040
1.25
1070
    43
1040
3.75
1070
   271
1070
     2
1070
   141
1040
2.5
1070
    41
1040
3.0
1070
     4
1000
"
1070
   274
1070
     3
1070
   143
1040
0.0394
1070
   171
1070
     3
1070
   170
1070
     1
1002
}
  0
LINE
  5
80D
330
80B
100
AcDbEntity
  8
PART
100
AcDbLine
 10
227.0000002314616
 20
24.70458700883182
 30
0.0
 11
224.2141594957304
 21
77.86159487756063
 31
0.0
  0
LINE
  5
80E
330
80B
100
AcDbEntity
  8
PART
100
AcDbLine
 10
0.0000002314616268
 20
24.70458700883183
 30
0.0
 11
3.720754807931726
 21
77.91385643006418
 31
0.0
  0
DIMENSION
  5
80F
330
80B
100
AcDbEntity
  8
PART
100
AcDbDimension
  2
*D24
 10
204.5000002314616
 20
62.61533518024322
 30
0.0
 11
113.5000002314616
 21
65.52604946595749
 31
0.0
 12
50.20560270457508
 22
-79.21781215632177
 32
0.0
  3
STANDARD
100
AcDbAlignedDimension
 13
22.50000023146162
 23
43.70458700883183
 33
0.0
 14
204.5000002314616
 24
43.70458700883183
 34
0.0
100
AcDbRotatedDimension
1001
ACAD
1000
DSTYLE
1002
{
1070
    78
1070
     8
1070
   140
1040
3.0
1070
    74
1070
     0
1070
   172
1070
     1
1070
    73
1070
     0
1070
   272
1070
     3
1070
    77
1070
     1
1070
     3
1000
mm
1070
   147
1040
0.625
1070
    42
1040
0.625
1070
    44
1040
1.25
1070
    43
1040
3.75
1070
   271
1070
     2
1070
   141
1040
2.5
1070
    41
1040
3.0
1070
     4
1000
"
1070
   274
1070
     4
1070
   143
1040
0.0394
1070
   171
1070
     3
1070
   170
1070
     1
1002
}
  0
LINE
  5
810
330
80B
100
AcDbEntity
  8
PART
100
AcDbLine
 10
0.0000002314616268
 20
24.70458700883183
 30
0.0
 11
113.5000002314616
 21
24.70458700883182
 31
0.0
  0
LINE
  5
811
330
80B
100
AcDbEntity
  8
PART
  6
INSERT_AREA
 48
0.8
100
AcDbLine
 10
25.50000023146163
 20
46.70458700883183
 30
0.0
 11
201.5000002314616
 21
46.70458700883183
 31
0.0
  0
LINE
  5
812
330
80B
100
AcDbEntity
  8
PART
100
AcDbLine
 10
11.23150517227013
 20
7.204587008831836
 30
0.0
 11
113.5000002314616
 21
7.204587008831836
 31
0.0
  0
LINE
  5
813
330
80B
100
AcDbEntity
  8
PART
100
AcDbLine
 10
0.5000002314616268
 20
16.10458700883182
 30
0.0
 11
113.5000002314616
 21
16.10458700883181
 31
0.0
  0
LINE
  5
814
330
80B
100
AcDbEntity
  8
PART
100
AcDbLine
 10
10.99835134319261
 20
4.704587008831836
 30
0.0
 11
113.5000002314616
 21
4.704587008831836
 31
0.0
  0
LINE
  5
815
330
80B
100
AcDbEntity
  8
HIDEN
100
AcDbLine
 10
14.66083208011947
 20
12.20458700883185
 30
0.0
 11
22.66083208011945
 21
12.20458700883185
 31
0.0
  0
LINE
  5
816
330
80B
100
AcDbEntity
  8
PART
100
AcDbLine
 10
3.000000231461626
 20
17.01451259449734
 30
0.0
 11
3.000000231461626
 21
24.70458700883182
 31
0.0
  0
LINE
  5
817
330
80B
100
AcDbEntity
  8
PART
100
AcDbLine
 10
0.5000002314616268
 20
16.10458700883182
 30
0.0
 11
0.5000002314616268
 21
24.70458700883182
 31
0.0
  0
LINE
  5
818
330
80B
100
AcDbEntity
  8
HIDEN
100
AcDbLine
 10
14.66083208011947
 20
7.204587008831822
 30
0.0
 11
14.66083208011946
 21
12.20458700883183
 31
0.0
  0
LINE
  5
819
330
80B
100
AcDbEntity
  8
PART
100
AcDbLine
 10
3.000000231461626
 20
17.01451259449734
 30
0.0
 11
11.23150517227013
 21
7.204587008831836
 31
0.0
  0
LINE
  5
81A
330
80B
100
AcDbEntity
  8
PART
100
AcDbLine
 10
0.5000002314616268
 20
16.10458700883182
 30
0.0
 11
9.466262456954659
 21
5.419011789458764
 31
0.0
  0
ARC
  5
81B
330
80B
100
AcDbEntity
  8
DIM
100
AcDbCircle
 10
10.99835134319261
 20
6.704587008831836
 30
0.0
 40
2.0
100
AcDbArc
 50
220.0
 51
270.0
  0
LINE
  5
81C
330
80B
100
AcDbEntity
  8
CENTER
100
AcDbLine
 10
18.66083208011946
 20
13.41454199487225
 30
0.0
 11
18.66083208011946
 21
3.667347381137119
 31
0.0
  0
LINE
  5
81D
330
80B
100
AcDbEntity
  8
HIDEN
100
AcDbLine
 10
22.66083208011945
 20
7.204587008831822
 30
0.0
 11
22.66083208011945
 21
12.20458700883183
 31
0.0
  0
TEXT
  5
81E
330
80B
100
AcDbEntity
  8
PART
  6
INSERT_AREA
100
AcDbText
 10
40.30442167349895
 20
26.54856161392894
 30
0.0
 40
2.5
  1
INSERT AREA
100
AcDbText
  0
ARC
  5
81F
330
80B
100
AcDbEntity
  8
PART
100
AcDbCircle
 10
25.50000023146163
 20
43.70458700883183
 30
0.0
 40
3.0
100
AcDbArc
 50
90.00000000000003
 51
180.0
  0
TEXT
  5
820
330
80B
100
AcDbEntity
  8
PART
  6
INSERT_AREA
100
AcDbText
 10
27.09413796415328
 20
26.09832526018777
 30
0.0
 40
2.0
  1
INSERT AREA
 50
90.0
100
AcDbText
  0
LINE
  5
821
330
80B
100
AcDbEntity
  8
PART
  6
INSERT_AREA
100
AcDbLine
 10
22.50000023146162
 20
24.70458700883185
 30
0.0
 11
22.50000023146162
 21
43.70458700883183
 31
0.0
  0
TEXT
  5
822
330
80B
100
AcDbEntity
  8
PART
  6
INSERT_AREA
100
AcDbText
 10
155.2256733484703
 20
26.54856161392894
 30
0.0
 40
2.5
  1
INSERT AREA
100
AcDbText
  0
LINE
  5
823
330
80B
100
AcDbEntity
  8
PART
100
AcDbLine
 10
216.0016491197306
 20
4.704587008831836
 30
0.0
 11
113.5000002314616
 21
4.704587008831836
 31
0.0
  0
LINE
  5
824
330
80B
100
AcDbEntity
  8
PART
100
AcDbLine
 10
215.7684952906531
 20
7.204587008831836
 30
0.0
 11
113.5000002314616
 21
7.204587008831836
 31
0.0
  0
LINE
  5
825
330
80B
100
AcDbEntity
  8
PART
100
AcDbLine
 10
226.5000002314616
 20
16.10458700883182
 30
0.0
 11
113.5000002314616
 21
16.10458700883181
 31
0.0
  0
LINE
  5
826
330
80B
100
AcDbEntity
  8
PART
100
AcDbLine
 10
226.5000002314616
 20
24.70458700883183
 30
0.0
 11
113.5000002314616
 21
24.70458700883182
 31
0.0
  0
LINE
  5
827
330
80B
100
AcDbEntity
  8
CENTER
100
AcDbLine
 10
113.5000002314616
 20
-0.0000001542088057
 30
0.0
 11
113.5000002314616
 21
53.70824594932606
 31
0.0
  0
LINE
  5
828
330
80B
100
AcDbEntity
  8
HIDEN
100
AcDbLine
 10
117.4873154743464
 20
7.204587008831822
 30
0.0
 11
117.4873154743464
 21
12.20458700883183
 31
0.0
  0
LINE
  5
829
330
80B
100
AcDbEntity
  8
CENTER
100
AcDbLine
 10
113.5126849885767
 20
13.73882562278061
 30
0.0
 11
113.5126849885767
 21
3.685585363454606
 31
0.0
  0
LINE
  5
82A
330
80B
100
AcDbEntity
  8
HIDEN
100
AcDbLine
 10
109.5126849885767
 20
7.204587008831822
 30
0.0
 11
109.5126849885767
 21
12.20458700883183
 31
0.0
  0
LINE
  5
82B
330
80B
100
AcDbEntity
  8
HIDEN
100
AcDbLine
 10
117.4873154743464
 20
12.20458700883185
 30
0.0
 11
113.5000002314616
 21
12.20458700883183
 31
0.0
  0
LINE
  5
82C
330
80B
100
AcDbEntity
  8
HIDEN
100
AcDbLine
 10
109.5126849885767
 20
12.20458700883185
 30
0.0
 11
113.5000002314616
 21
12.20458700883183
 31
0.0
  0
TEXT
  5
82D
330
80B
100
AcDbEntity
  8
PART
  6
INSERT_AREA
100
AcDbText
 10
101.5076937762178
 20
26.54856161392894
 30
0.0
 40
2.5
  1
INSERT AREA
100
AcDbText
  0
LINE
  5
82E
330
80B
100
AcDbEntity
  8
PART
100
AcDbLine
 10
226.5000002314616
 20
16.10458700883182
 30
0.0
 11
226.5000002314616
 21
24.70458700883182
 31
0.0
  0
LINE
  5
82F
330
80B
100
AcDbEntity
  8
PART
100
AcDbLine
 10
224.0000002314616
 20
17.01451259449734
 30
0.0
 11
224.0000002314616
 21
24.70458700883182
 31
0.0
  0
ARC
  5
830
330
80B
100
AcDbEntity
  8
PART
100
AcDbCircle
 10
216.0016491197306
 20
6.704587008831836
 30
0.0
 40
2.0
100
AcDbArc
 50
270.0
 51
320.0
  0
LINE
  5
831
330
80B
100
AcDbEntity
  8
PART
100
AcDbLine
 10
224.0000002314616
 20
17.01451259449734
 30
0.0
 11
215.7684952906531
 21
7.204587008831836
 31
0.0
  0
LINE
  5
832
330
80B
100
AcDbEntity
  8
CENTER
100
AcDbLine
 10
208.3391683828037
 20
13.41454199487225
 30
0.0
 11
208.3391683828037
 21
3.667347381137119
 31
0.0
  0
LINE
  5
833
330
80B
100
AcDbEntity
  8
HIDEN
100
AcDbLine
 10
204.3391683828037
 20
7.204587008831822
 30
0.0
 11
204.3391683828037
 21
12.20458700883183
 31
0.0
  0
LINE
  5
834
330
80B
100
AcDbEntity
  8
HIDEN
100
AcDbLine
 10
212.3391683828038
 20
7.204587008831822
 30
0.0
 11
212.3391683828038
 21
12.20458700883183
 31
0.0
  0
LINE
  5
835
330
80B
100
AcDbEntity
  8
HIDEN
100
AcDbLine
 10
212.3391683828038
 20
12.20458700883185
 30
0.0
 11
204.3391683828037
 21
12.20458700883185
 31
0.0
  0
LINE
  5
836
330
80B
100
AcDbEntity
  8
PART
100
AcDbLine
 10
226.5000002314616
 20
16.10458700883182
 30
0.0
 11
217.5337380059685
 21
5.419011789458764
 31
0.0
  0
ARC
  5
837
330
80B
100
AcDbEntity
  8
PART
100
AcDbCircle
 10
201.5000002314616
 20
43.70458700883183
 30
0.0
 40
3.0
100
AcDbArc
 50
0.000000000000007
 51
90.0
  0
TEXT
  5
838
330
80B
100
AcDbEntity
  8
PART
  6
INSERT_AREA
100
AcDbText
 10
201.0194677546944
 20
45.4753322647227
 30
0.0
 40
2.0
  1
INSERT AREA
 50
270.0
100
AcDbText
  0
LINE
  5
839
330
80B
100
AcDbEntity
  8
PART
  6
INSERT_AREA
100
AcDbLine
 10
204.5000002314616
 20
24.70458700883185
 30
0.0
 11
204.5000002314616
 21
43.70458700883183
 31
0.0
  0
LINE
  5
83A
330
80B
100
AcDbEntity
  8
PART
100
AcDbLine
 10
6.713446958711202
 20
80.70458700883182
 30
0.0
 11
113.5000002314616
 21
80.70458700883182
 31
0.0
  0
ARC
  5
83B
330
80B
100
AcDbEntity
  8
PART
100
AcDbCircle
 10
6.713446958711202
 20
77.70458700883182
 30
0.0
 40
3.0
100
AcDbArc
 50
90.0
 51
176.0
  0
LINE
  5
83C
330
80B
100
AcDbEntity
  8
PART
100
AcDbLine
 10
221.2182708914666
 20
80.70458700883179
 30
0.0
 11
113.5000002314616
 21
80.70458700883182
 31
0.0
  0
ARC
  5
83D
330
80B
100
AcDbEntity
  8
PART
100
AcDbCircle
 10
221.2182708914666
 20
77.70458700883179
 30
0.0
 40
3.0
100
AcDbArc
 50
3.000000000000016
 51
90.0
  0
ENDBLK
  5
83F
330
80B
100
AcDbEntity
  8
0
100
AcDbBlockEnd
  0
ENDSEC
  0
SECTION
  2
ENTITIES
  0
DIMENSION
  5
3FD
330
18
100
AcDbEntity
  8
DIM
100
AcDbDimension
  2
*D1
 10
1007.24000524748
 20
697.1392484701241
 30
0.0
 11
1005.11500524748
 21
604.1392484701241
 31
0.0
 12
520.9982127382481
 22
283.4731579231788
 32
0.0
 70
    32
  3
STANDARD
100
AcDbAlignedDimension
 13
958.7790847713819
 23
511.1392484701241
 33
0.0
 14
958.7790847713819
 24
697.1392484701241
 34
0.0
 50
90.0
100
AcDbRotatedDimension
1001
ACAD
1000
DSTYLE
1002
{
1070
    78
1070
     8
1070
   140
1040
3.0
1070
    74
1070
     0
1070
   172
1070
     1
1070
    73
1070
     0
1070
    77
1070
     1
1070
     3
1000
mm
1070
   147
1040
0.625
1070
    42
1040
0.625
1070
    44
1040
1.25
1070
    43
1040
3.75
1070
   271
1070
     2
1070
   141
1040
2.5
1070
    41
1040
3.0
1070
     4
1000
"
1070
   273
1070
     8
1070
   274
1070
     4
1070
   143
1040
0.0394
1070
   171
1070
     4
1070
   170
1070
     1
1002
}
  0
ARC
  5
3FE
330
18
100
AcDbEntity
  8
PART
100
AcDbCircle
 10
971.7790847713819
 20
507.1392484701241
 30
0.0
 40
10.0
100
AcDbArc
 50
270.0
 51
0.0
  0
ARC
  5
3FF
330
18
100
AcDbEntity
  8
PART
100
AcDbCircle
 10
971.7790847713819
 20
701.1392484701241
 30
0.0
 40
10.0
100
AcDbArc
 50
0.0
 51
90.0
  0
DIMENSION
  5
400
330
18
100
AcDbEntity
  8
DIM
100
AcDbDimension
  2
*D2
 10
967.7790847713819
 20
644.2923483209958
 30
0.0
 11
868.7790847713818
 21
646.4173483209958
 31
0.0
 12
520.9982127382481
 22
283.4731579231788
 32
0.0
 70
    32
  3
STANDARD
100
AcDbAlignedDimension
 13
769.7790847713819
 23
604.1392484701241
 33
0.0
 14
967.7790847713819
 24
604.1392484701241
 34
0.0
100
AcDbRotatedDimension
1001
ACAD
1000
DSTYLE
1002
{
1070
    78
1070
     8
1070
   140
1040
3.0
1070
    74
1070
     0
1070
   172
1070
     1
1070
    73
1070
     0
1070
    77
1070
     1
1070
     3
1000
mm
1070
   147
1040
0.625
1070
    42
1040
0.625
1070
    44
1040
1.25
1070
    43
1040
3.75
1070
   271
1070
     2
1070
   141
1040
2.5
1070
    41
1040
3.0
1070
     4
1000
"
1070
   273
1070
     8
1070
   274
1070
     4
1070
   143
1040
0.0394
1070
   171
1070
     4
1070
   170
1070
     1
1002
}
  0
LINE
  5
401
330
18
100
AcDbEntity
  8
PART
100
AcDbLine
 10
970.4680577386842
 20
695.7881234948143
 30
0.0
 11
970.4680577386842
 21
512.4903734454339
 31
0.0
  0
LINE
  5
402
330
18
100
AcDbEntity
  8
PART
100
AcDbLine
 10
767.3304687934346
 20
695.8545348506344
 30
0.0
 11
767.3304687934346
 21
512.4239620896138
 31
0.0
  0
LINE
  5
403
330
18
100
AcDbEntity
  8
PART
100
AcDbLine
 10
979.2790847713819
 20
507.1392484701241
 30
0.0
 11
979.2790847713819
 21
701.1392484701241
 31
0.0
  0
LINE
  5
404
330
18
100
AcDbEntity
  8
PART
100
AcDbLine
 10
758.2790847713819
 20
701.1392484701241
 30
0.0
 11
758.2790847713819
 21
507.1392484701241
 31
0.0
  0
LINE
  5
405
330
18
100
AcDbEntity
  8
PART
100
AcDbLine
 10
755.7790847713818
 20
701.1392484701241
 30
0.0
 11
755.7790847713818
 21
507.1392484701241
 31
0.0
  0
LINE
  5
406
330
18
100
AcDbEntity
  8
PART
100
AcDbLine
 10
981.7790847713819
 20
507.1392484701241
 30
0.0
 11
981.7790847713819
 21
701.1392484701241
 31
0.0
  0
LINE
  5
407
330
18
100
AcDbEntity
  8
CENTER
100
AcDbLine
 10
868.7790847713818
 20
720.3573161783322
 30
0.0
 11
868.7790847713818
 21
487.9862555498132
 31
0.0
  0
TEXT
  5
408
330
18
100
AcDbEntity
  8
DIM
100
AcDbText
 10
489.1279559010772
 20
31.14769151259634
 30
0.0
 40
4.0
  1
%%uMaximum size of PCB: 198 X 122mm%%u
100
AcDbText
  0
DIMENSION
  5
409
330
18
100
AcDbEntity
  8
DIM
100
AcDbDimension
  2
*D3
 10
801.7387487272182
 20
569.1392484701241
 30
0.0
 11
799.6137487272183
 21
548.2642484701241
 31
0.0
 12
520.9982127382481
 22
283.4731579231788
 32
0.0
 70
    32
  3
STANDARD
100
AcDbAlignedDimension
 13
769.7790847713819
 23
604.1392484701241
 33
0.0
 14
868.7790847713818
 24
569.1392484701241
 34
0.0
 50
90.0
100
AcDbRotatedDimension
1001
ACAD
1000
DSTYLE
1002
{
1070
    78
1070
     8
1070
   140
1040
3.0
1070
    74
1070
     0
1070
   172
1070
     1
1070
    73
1070
     0
1070
    77
1070
     1
1070
     3
1000
mm
1070
   147
1040
0.625
1070
    42
1040
0.625
1070
    44
1040
1.25
1070
    43
1040
3.75
1070
   271
1070
     2
1070
   141
1040
2.5
1070
    41
1040
3.0
1070
     4
1000
"
1070
   273
1070
     8
1070
   274
1070
     4
1070
   143
1040
0.0394
1070
   171
1070
     4
1070
   170
1070
     1
1002
}
  0
DIMENSION
  5
40A
330
18
100
AcDbEntity
  8
DIM
100
AcDbDimension
  2
*D4
 10
958.7790847713819
 20
477.2369718060048
 30
0.0
 11
868.7790847713818
 21
479.3619718060048
 31
0.0
 12
520.9982127382481
 22
283.4731579231788
 32
0.0
 70
    32
  3
STANDARD
100
AcDbAlignedDimension
 13
778.7790847713819
 23
511.1392484701241
 33
0.0
 14
958.7790847713819
 24
511.1392484701241
 34
0.0
100
AcDbRotatedDimension
1001
ACAD
1000
DSTYLE
1002
{
1070
    78
1070
     8
1070
   140
1040
3.0
1070
    74
1070
     0
1070
   172
1070
     1
1070
    73
1070
     0
1070
    77
1070
     1
1070
     3
1000
mm
1070
   147
1040
0.625
1070
    42
1040
0.625
1070
    44
1040
1.25
1070
    43
1040
3.75
1070
   271
1070
     2
1070
   141
1040
2.5
1070
    41
1040
3.0
1070
     4
1000
"
1070
   273
1070
     8
1070
   274
1070
     4
1070
   143
1040
0.0394
1070
   171
1070
     4
1070
   170
1070
     1
1002
}
  0
LINE
  5
40B
330
18
100
AcDbEntity
  8
PART
100
AcDbLine
 10
955.8764961687392
 20
508.3869804228929
 30
0.0
 11
781.6816733740245
 21
508.3869804228929
 31
0.0
  0
LINE
  5
40C
330
18
100
AcDbEntity
  8
CENTER
100
AcDbLine
 10
758.2790847713819
 20
604.1392484701241
 30
0.0
 11
979.2790847713819
 21
604.1392484701241
 31
0.0
  0
LINE
  5
40D
330
18
100
AcDbEntity
  8
PART
100
AcDbLine
 10
765.7790847713819
 20
499.6392484701241
 30
0.0
 11
971.7790847713819
 21
499.6392484701241
 31
0.0
  0
LINE
  5
40E
330
18
100
AcDbEntity
  8
PART
100
AcDbLine
 10
765.7790847713819
 20
497.1392484701241
 30
0.0
 11
971.7790847713819
 21
497.1392484701241
 31
0.0
  0
CIRCLE
  5
40F
330
18
100
AcDbEntity
  8
PART
100
AcDbCircle
 10
778.7790847713819
 20
511.1392484701241
 30
0.0
 40
1.199999999999999
  0
CIRCLE
  5
410
330
18
100
AcDbEntity
  8
PART
100
AcDbCircle
 10
778.7790847713819
 20
511.1392484701241
 30
0.0
 40
4.0
  0
CIRCLE
  5
411
330
18
100
AcDbEntity
  8
PART
100
AcDbCircle
 10
765.8790847713819
 20
507.6392484701241
 30
0.0
 40
5.0
  0
ARC
  5
412
330
18
100
AcDbEntity
  8
PART
100
AcDbCircle
 10
765.7790847713819
 20
507.1392484701241
 30
0.0
 40
7.5
100
AcDbArc
 50
180.0
 51
270.0
  0
ARC
  5
413
330
18
100
AcDbEntity
  8
PART
100
AcDbCircle
 10
765.7790847713819
 20
507.1392484701241
 30
0.0
 40
10.0
100
AcDbArc
 50
180.0
 51
270.0
  0
CIRCLE
  5
414
330
18
100
AcDbEntity
  8
PART
100
AcDbCircle
 10
765.8790847713819
 20
507.6392484701241
 30
0.0
 40
4.0
  0
CIRCLE
  5
415
330
18
100
AcDbEntity
  8
PART
100
AcDbCircle
 10
765.8790847713819
 20
507.6392484701241
 30
0.0
 40
2.0
  0
LINE
  5
416
330
18
100
AcDbEntity
  8
PART
100
AcDbLine
 10
775.8764961687393
 20
508.3869804228929
 30
0.0
 11
770.8228583227097
 21
508.3869804228929
 31
0.0
  0
CIRCLE
  5
417
330
18
100
AcDbEntity
  8
PART
100
AcDbCircle
 10
769.7790847713819
 20
604.1392484701241
 30
0.0
 40
1.199999999999999
  0
CIRCLE
  5
418
330
18
100
AcDbEntity
  8
PART
100
AcDbCircle
 10
769.7790847713819
 20
604.1392484701241
 30
0.0
 40
4.0
  0
CIRCLE
  5
419
330
18
100
AcDbEntity
  8
PART
100
AcDbCircle
 10
958.7790847713819
 20
511.1392484701241
 30
0.0
 40
1.199999999999999
  0
CIRCLE
  5
41A
330
18
100
AcDbEntity
  8
PART
100
AcDbCircle
 10
958.7790847713819
 20
511.1392484701241
 30
0.0
 40
4.0
  0
CIRCLE
  5
41B
330
18
100
AcDbEntity
  8
PART
100
AcDbCircle
 10
971.6790847713818
 20
507.6392484701241
 30
0.0
 40
5.0
  0
LINE
  5
41C
330
18
100
AcDbEntity
  8
PART
100
AcDbLine
 10
966.735311220054
 20
508.3869804228929
 30
0.0
 11
961.6816733740245
 21
508.3869804228929
 31
0.0
  0
ARC
  5
41D
330
18
100
AcDbEntity
  8
PART
100
AcDbCircle
 10
971.7790847713819
 20
507.1392484701241
 30
0.0
 40
7.5
100
AcDbArc
 50
270.0
 51
0.0
  0
CIRCLE
  5
41E
330
18
100
AcDbEntity
  8
PART
100
AcDbCircle
 10
971.6790847713818
 20
507.6392484701241
 30
0.0
 40
2.0
  0
CIRCLE
  5
41F
330
18
100
AcDbEntity
  8
PART
100
AcDbCircle
 10
971.6790847713818
 20
507.6392484701241
 30
0.0
 40
4.0
  0
CIRCLE
  5
420
330
18
100
AcDbEntity
  8
PART
100
AcDbCircle
 10
868.7790847713818
 20
569.1392484701241
 30
0.0
 40
4.0
  0
CIRCLE
  5
421
330
18
100
AcDbEntity
  8
PART
100
AcDbCircle
 10
868.7790847713818
 20
569.1392484701241
 30
0.0
 40
1.199999999999999
  0
CIRCLE
  5
422
330
18
100
AcDbEntity
  8
PART
100
AcDbCircle
 10
967.7790847713819
 20
604.1392484701241
 30
0.0
 40
4.0
  0
CIRCLE
  5
423
330
18
100
AcDbEntity
  8
PART
100
AcDbCircle
 10
967.7790847713819
 20
604.1392484701241
 30
0.0
 40
1.199999999999999
  0
LINE
  5
424
330
18
100
AcDbEntity
  8
PART
100
AcDbLine
 10
955.6045467429592
 20
699.5728277899939
 30
0.0
 11
781.9536227998046
 21
699.5728277899939
 31
0.0
  0
LINE
  5
425
330
18
100
AcDbEntity
  8
PART
100
AcDbLine
 10
971.7790847713819
 20
708.6392484701241
 30
0.0
 11
765.7790847713819
 21
708.6392484701241
 31
0.0
  0
LINE
  5
426
330
18
100
AcDbEntity
  8
PART
100
AcDbLine
 10
971.7790847713819
 20
711.1392484701241
 30
0.0
 11
765.7790847713819
 21
711.1392484701241
 31
0.0
  0
CIRCLE
  5
427
330
18
100
AcDbEntity
  8
PART
100
AcDbCircle
 10
765.8790847713819
 20
700.6392484701241
 30
0.0
 40
5.0
  0
ARC
  5
428
330
18
100
AcDbEntity
  8
PART
100
AcDbCircle
 10
765.7790847713819
 20
701.1392484701241
 30
0.0
 40
7.5
100
AcDbArc
 50
90.0
 51
180.0
  0
ARC
  5
429
330
18
100
AcDbEntity
  8
PART
100
AcDbCircle
 10
765.7790847713819
 20
701.1392484701241
 30
0.0
 40
10.0
100
AcDbArc
 50
90.0
 51
180.0
  0
CIRCLE
  5
42A
330
18
100
AcDbEntity
  8
PART
100
AcDbCircle
 10
765.8790847713819
 20
700.6392484701241
 30
0.0
 40
2.0
  0
CIRCLE
  5
42B
330
18
100
AcDbEntity
  8
PART
100
AcDbCircle
 10
765.8790847713819
 20
700.6392484701241
 30
0.0
 40
4.0
  0
CIRCLE
  5
42C
330
18
100
AcDbEntity
  8
PART
100
AcDbCircle
 10
778.7790847713819
 20
697.1392484701241
 30
0.0
 40
4.0
  0
LINE
  5
42D
330
18
100
AcDbEntity
  8
PART
100
AcDbLine
 10
775.6045467429592
 20
699.5728277899939
 30
0.0
 11
770.7640358389967
 21
699.5728277899939
 31
0.0
  0
CIRCLE
  5
42E
330
18
100
AcDbEntity
  8
PART
100
AcDbCircle
 10
778.7790847713819
 20
697.1392484701241
 30
0.0
 40
1.199999999999999
  0
LINE
  5
42F
330
18
100
AcDbEntity
  8
PART
100
AcDbLine
 10
777.7790847713819
 20
711.1392484701241
 30
0.0
 11
777.7790847713819
 21
708.6392484701241
 31
0.0
  0
CIRCLE
  5
430
330
18
100
AcDbEntity
  8
PART
100
AcDbCircle
 10
971.6790847713818
 20
700.6392484701241
 30
0.0
 40
5.0
  0
ARC
  5
431
330
18
100
AcDbEntity
  8
PART
100
AcDbCircle
 10
971.7790847713819
 20
701.1392484701241
 30
0.0
 40
7.5
100
AcDbArc
 50
0.0
 51
90.0
  0
CIRCLE
  5
432
330
18
100
AcDbEntity
  8
PART
100
AcDbCircle
 10
971.6790847713818
 20
700.6392484701241
 30
0.0
 40
2.0
  0
CIRCLE
  5
433
330
18
100
AcDbEntity
  8
PART
100
AcDbCircle
 10
971.6790847713818
 20
700.6392484701241
 30
0.0
 40
4.0
  0
LINE
  5
434
330
18
100
AcDbEntity
  8
PART
100
AcDbLine
 10
966.7941337037671
 20
699.5728277899939
 30
0.0
 11
961.9536227998047
 21
699.5728277899939
 31
0.0
  0
CIRCLE
  5
435
330
18
100
AcDbEntity
  8
PART
100
AcDbCircle
 10
958.7790847713819
 20
697.1392484701241
 30
0.0
 40
4.0
  0
CIRCLE
  5
436
330
18
100
AcDbEntity
  8
PART
100
AcDbCircle
 10
958.7790847713819
 20
697.1392484701241
 30
0.0
 40
1.199999999999999
  0
LINE
  5
437
330
18
100
AcDbEntity
  8
PART
100
AcDbLine
 10
959.7790847713818
 20
711.1392484701241
 30
0.0
 11
959.7790847713818
 21
708.6392484701241
 31
0.0
  0
TEXT
  5
438
330
18
100
AcDbEntity
  8
DIM
100
AcDbText
 10
489.1279559010772
 20
24.67150103640586
 30
0.0
 40
4.0
  1
(pillars not taken into consideration)
100
AcDbText
  0
MTEXT
  5
497
102
{ACAD_REACTORS
330
498
102
}
330
18
100
AcDbEntity
  8
DIM
100
AcDbMText
 10
341.4914913682379
 20
720.6789522652889
 30
0.0
 40
3.0
 41
0.0
 71
     4
 72
     1
  1
\A1;Threaded brass \Pbushings M3 (4)
1001
ACAD
1000
MTEXTBEGIN
1070
    73
1070
     1
1070
    44
1040
1.0
1070
    74
1070
     0
1000
MTEXTEND
  0
LEADER
  5
498
330
18
100
AcDbEntity
  8
DIM
100
AcDbLeader
  3
STANDARD
 73
     0
 74
     0
 40
9.0
 41
41.0
 76
     3
 10
311.7363407314438
 20
702.4901204548593
 30
0.0
 10
336.1622107305194
 20
715.7990217795639
 30
0.0
 10
340.8664913682379
 20
715.5539522652889
 30
0.0
340
497
1001
ACAD
1000
DSTYLE
1002
{
1070
     3
1000
mm
1070
     4
1000
"
1070
     5
1000

1070
    41
1040
3.0
1070
    42
1040
0.625
1070
    43
1040
3.75
1070
    44
1040
1.25
1070
    73
1070
     0
1070
    74
1070
     0
1070
    77
1070
     1
1070
    78
1070
     8
1070
   140
1040
2.7
1070
   141
1040
2.5
1070
   143
1040
0.0394
1070
   147
1040
0.625
1070
   170
1070
     1
1070
   171
1070
     4
1070
   172
1070
     1
1070
   271
1070
     2
1070
   273
1070
     8
1070
   274
1070
     4
1002
}
  0
DIMENSION
  5
499
330
18
100
AcDbEntity
  8
DIM
100
AcDbDimension
  2
*D5
 10
322.826513927907
 20
734.5878501578424
 30
0.0
 11
208.826513927907
 21
737.7128501578424
 31
0.0
 12
-135.2378337375412
 22
0.0
 32
0.0
 70
    32
  3
STANDARD
100
AcDbAlignedDimension
 13
94.82651392790705
 23
703.4468864256502
 33
0.0
 14
322.826513927907
 24
703.4468864256502
 34
0.0
100
AcDbRotatedDimension
1001
ACAD
1000
DSTYLE
1002
{
1070
    78
1070
     8
1070
   140
1040
5.0
1070
    74
1070
     0
1070
   172
1070
     1
1070
    73
1070
     0
1070
    77
1070
     1
1070
     3
1000
mm
1070
   147
1040
0.625
1070
    42
1040
0.625
1070
    44
1040
1.25
1070
    43
1040
3.75
1070
   271
1070
     2
1070
   141
1040
2.5
1070
    41
1040
5.0
1070
     4
1000
"
1070
   273
1070
     8
1070
   274
1070
     4
1070
   143
1040
0.0394
1070
   171
1070
     4
1070
   170
1070
     1
1002
}
  0
ARC
  5
49A
330
18
100
AcDbEntity
  8
PART
100
AcDbCircle
 10
311.826513927907
 20
703.4468864256502
 30
0.0
 40
11.0
100
AcDbArc
 50
0.0
 51
90.0
  0
ARC
  5
49B
330
18
100
AcDbEntity
  8
PART
100
AcDbCircle
 10
311.826513927907
 20
509.4468864256501
 30
0.0
 40
11.0
100
AcDbArc
 50
270.0
 51
0.0
  0
DIMENSION
  5
49C
330
18
100
AcDbEntity
  8
DIM
100
AcDbDimension
  2
*D6
 10
82.11473737971074
 20
714.4468864256501
 30
0.0
 11
78.9897373797107
 21
606.4468864256501
 31
0.0
 12
-135.2378337375412
 22
0.0
 32
0.0
 70
    32
  3
STANDARD
100
AcDbAlignedDimension
 13
105.826513927907
 23
498.4468864256501
 33
0.0
 14
105.826513927907
 24
714.4468864256501
 34
0.0
 50
90.0
100
AcDbRotatedDimension
1001
ACAD
1000
DSTYLE
1002
{
1070
    78
1070
     8
1070
   140
1040
5.0
1070
    74
1070
     0
1070
   172
1070
     1
1070
    73
1070
     0
1070
    77
1070
     1
1070
     3
1000
mm
1070
   147
1040
0.625
1070
    42
1040
0.625
1070
    44
1040
1.25
1070
    43
1040
3.75
1070
   271
1070
     2
1070
   141
1040
2.5
1070
    41
1040
5.0
1070
     4
1000
"
1070
   273
1070
     8
1070
   274
1070
     4
1070
   143
1040
0.0394
1070
   171
1070
     4
1070
   170
1070
     1
1002
}
  0
LINE
  5
49D
330
18
100
AcDbEntity
  8
PART
100
AcDbLine
 10
318.826513927907
 20
609.0968864256502
 30
0.0
 11
318.826513927907
 21
705.9468864256501
 31
0.0
  0
LINE
  5
49E
330
18
100
AcDbEntity
  8
PART
100
AcDbLine
 10
99.12651392790706
 20
661.7968864256502
 30
0.0
 11
99.12651392790706
 21
609.0968864256502
 31
0.0
  0
LINE
  5
49F
330
18
100
AcDbEntity
  8
CENTER
100
AcDbLine
 10
208.826513927907
 20
722.6649541338581
 30
0.0
 11
208.826513927907
 21
490.2938935053391
 31
0.0
  0
LINE
  5
4A0
330
18
100
AcDbEntity
  8
PART
100
AcDbLine
 10
94.82651392790705
 20
703.4468864256502
 30
0.0
 11
94.82651392790705
 21
509.4468864256501
 31
0.0
  0
LINE
  5
4A1
330
18
100
AcDbEntity
  8
PART
100
AcDbLine
 10
97.32651392790707
 20
703.9468864256502
 30
0.0
 11
97.32651392790707
 21
508.9468864256502
 31
0.0
  0
LINE
  5
4A2
330
18
100
AcDbEntity
  8
PART
100
AcDbLine
 10
320.326513927907
 20
508.9468864256502
 30
0.0
 11
320.326513927907
 21
703.9468864256502
 31
0.0
  0
LINE
  5
4A3
330
18
100
AcDbEntity
  8
PART
100
AcDbLine
 10
146.1805635496809
 20
639.8520136950726
 30
0.0
 11
206.9724643061331
 21
639.8520136950726
 31
0.0
  0
LINE
  5
4A4
330
18
100
AcDbEntity
  8
PART
100
AcDbLine
 10
146.1805635496809
 20
638.3520136950726
 30
0.0
 11
206.9724643061331
 21
638.3520136950726
 31
0.0
  0
LINE
  5
4A5
330
18
100
AcDbEntity
  8
PART
100
AcDbLine
 10
116.9683699330396
 20
635.9468864256501
 30
0.0
 11
300.8902871689673
 21
635.9468864256501
 31
0.0
  0
LINE
  5
4A6
330
18
100
AcDbEntity
  8
PART
100
AcDbLine
 10
108.826513927907
 20
641.4468864256502
 30
0.0
 11
308.826513927907
 21
641.4468864256502
 31
0.0
  0
LINE
  5
4A7
330
18
100
AcDbEntity
  8
PART
100
AcDbLine
 10
109.8304847675135
 20
509.07567365973
 30
0.0
 11
307.8225430883005
 21
509.07567365973
 31
0.0
  0
LINE
  5
4A8
330
18
100
AcDbEntity
  8
PART
100
AcDbLine
 10
105.126513927907
 20
503.9468864256502
 30
0.0
 11
312.826513927907
 21
503.9468864256502
 31
0.0
  0
LINE
  5
4A9
330
18
100
AcDbEntity
  8
PART
100
AcDbLine
 10
117.0544246479478
 20
513.9468864256501
 30
0.0
 11
300.8042324540591
 21
513.9468864256501
 31
0.0
  0
LINE
  5
4AA
330
18
100
AcDbEntity
  8
PART
100
AcDbLine
 10
105.826513927907
 20
498.4468864256501
 30
0.0
 11
311.826513927907
 21
498.4468864256501
 31
0.0
  0
LINE
  5
4AB
330
18
100
AcDbEntity
  8
PART
100
AcDbLine
 10
105.326513927907
 20
500.9468864256501
 30
0.0
 11
312.326513927907
 21
500.9468864256501
 31
0.0
  0
LINE
  5
4AC
330
18
100
AcDbEntity
  8
PART
100
AcDbLine
 10
99.12651392790706
 20
551.7968864256501
 30
0.0
 11
99.12651392790706
 21
509.9468864256501
 31
0.0
  0
LINE
  5
4AD
330
18
100
AcDbEntity
  8
PART
100
AcDbLine
 10
111.826513927907
 20
631.3147727543037
 30
0.0
 11
111.826513927907
 21
520.9285064674327
 31
0.0
  0
LINE
  5
4AE
330
18
100
AcDbEntity
  8
PART
100
AcDbLine
 10
106.326513927907
 20
638.3520136950726
 30
0.0
 11
106.326513927907
 21
513.9268361740767
 31
0.0
  0
ARC
  5
4AF
330
18
100
AcDbEntity
  8
PART
100
AcDbCircle
 10
105.326513927907
 20
508.9468864256502
 30
0.0
 40
8.0
100
AcDbArc
 50
180.0
 51
270.0
  0
ARC
  5
4B0
330
18
100
AcDbEntity
  8
PART
100
AcDbCircle
 10
105.826513927907
 20
509.4468864256501
 30
0.0
 40
11.0
100
AcDbArc
 50
180.0
 51
270.0
  0
CIRCLE
  5
4B1
330
18
100
AcDbEntity
  8
PART
100
AcDbCircle
 10
105.926513927907
 20
509.9468864256501
 30
0.0
 40
4.0
  0
CIRCLE
  5
4B2
330
18
100
AcDbEntity
  8
PART
100
AcDbCircle
 10
105.926513927907
 20
509.9468864256501
 30
0.0
 40
2.0
  0
ARC
  5
4B3
330
18
100
AcDbEntity
  8
PART
100
AcDbCircle
 10
105.126513927907
 20
509.9468864256501
 30
0.0
 40
6.0
100
AcDbArc
 50
180.0
 51
270.0
  0
LWPOLYLINE
  5
4B4
330
18
100
AcDbEntity
  8
PART
100
AcDbPolyline
 90
        4
 70
     1
 43
0.0
 10
111.860601886466
 20
515.2955378052688
 10
114.060601886466
 20
515.2955378052688
 10
114.060601886466
 20
519.0955378052688
 10
111.860601886466
 20
519.0955378052688
  0
CIRCLE
  5
4B5
330
18
100
AcDbEntity
  8
PART
100
AcDbCircle
 10
113.0544246479478
 20
517.1216396108682
 30
0.0
 40
4.0
  0
LINE
  5
4B6
330
18
100
AcDbEntity
  8
PART
100
AcDbLine
 10
117.0544246479478
 20
517.1216396108682
 30
0.0
 11
117.0544246479478
 21
513.9468864256501
 31
0.0
  0
LINE
  5
4B7
330
18
100
AcDbEntity
  8
0
100
AcDbLine
 10
152.676513927907
 20
503.4468864256502
 30
0.0
 11
152.676513927907
 21
500.9468864256501
 31
0.0
  0
LINE
  5
4B8
330
18
100
AcDbEntity
  8
PART
100
AcDbLine
 10
152.676513927907
 20
503.4468864256502
 30
0.0
 11
154.976513927907
 21
503.4468864256502
 31
0.0
  0
LINE
  5
4B9
330
18
100
AcDbEntity
  8
PART
100
AcDbLine
 10
152.676513927907
 20
502.4468864256501
 30
0.0
 11
154.976513927907
 21
502.4468864256501
 31
0.0
  0
LINE
  5
4BA
330
18
100
AcDbEntity
  8
0
100
AcDbLine
 10
154.976513927907
 20
503.4468864256502
 30
0.0
 11
154.976513927907
 21
500.9468864256501
 31
0.0
  0
LINE
  5
4BB
330
18
100
AcDbEntity
  8
PART
100
AcDbLine
 10
99.12651392790706
 20
606.7968864256502
 30
0.0
 11
99.12651392790706
 21
554.0968864256501
 31
0.0
  0
LINE
  5
4BC
330
18
100
AcDbEntity
  8
PART
100
AcDbLine
 10
97.32651392790707
 20
551.7968864256501
 30
0.0
 11
99.82651392790707
 21
551.7968864256501
 31
0.0
  0
LINE
  5
4BD
330
18
100
AcDbEntity
  8
PART
100
AcDbLine
 10
97.32651392790707
 20
554.0968864256501
 30
0.0
 11
99.82651392790707
 21
554.0968864256501
 31
0.0
  0
LINE
  5
4BE
330
18
100
AcDbEntity
  8
PART
100
AcDbLine
 10
99.82651392790707
 20
554.0968864256501
 30
0.0
 11
99.82651392790707
 21
551.7968864256501
 31
0.0
  0
LINE
  5
4BF
330
18
100
AcDbEntity
  8
PART
100
AcDbLine
 10
98.82651392790705
 20
554.0968864256501
 30
0.0
 11
98.82651392790705
 21
551.7968864256501
 31
0.0
  0
LINE
  5
4C0
330
18
100
AcDbEntity
  8
PART
100
AcDbLine
 10
115.4133827391609
 20
638.3520136950726
 30
0.0
 11
142.4724643061331
 21
638.3520136950726
 31
0.0
  0
LINE
  5
4C1
330
18
100
AcDbEntity
  8
PART
100
AcDbLine
 10
99.12651392790706
 20
639.8520136950726
 30
0.0
 11
142.4724643061331
 21
639.8520136950726
 31
0.0
  0
LINE
  5
4C2
330
18
100
AcDbEntity
  8
PART
100
AcDbLine
 10
98.82651392790705
 20
609.0968864256502
 30
0.0
 11
98.82651392790705
 21
606.7968864256502
 31
0.0
  0
LINE
  5
4C3
330
18
100
AcDbEntity
  8
PART
100
AcDbLine
 10
99.82651392790707
 20
609.0968864256502
 30
0.0
 11
99.82651392790707
 21
606.7968864256502
 31
0.0
  0
LINE
  5
4C4
330
18
100
AcDbEntity
  8
PART
100
AcDbLine
 10
97.32651392790707
 20
606.7968864256502
 30
0.0
 11
99.82651392790707
 21
606.7968864256502
 31
0.0
  0
LINE
  5
4C5
330
18
100
AcDbEntity
  8
PART
100
AcDbLine
 10
97.32651392790707
 20
609.0968864256502
 30
0.0
 11
99.82651392790707
 21
609.0968864256502
 31
0.0
  0
LINE
  5
4C6
330
18
100
AcDbEntity
  8
PART
100
AcDbLine
 10
99.12651392790706
 20
638.3520136950726
 30
0.0
 11
110.6954665567346
 21
638.3520136950726
 31
0.0
  0
ARC
  5
4C7
330
18
100
AcDbEntity
  8
PART
100
AcDbCircle
 10
108.826513927907
 20
638.9468864256501
 30
0.0
 40
2.5
100
AcDbArc
 50
90.0
 51
158.7737971747146
  0
LWPOLYLINE
  5
4C8
330
18
100
AcDbEntity
  8
PART
100
AcDbPolyline
 90
        4
 70
     1
 43
0.0
 10
111.8747874833813
 20
633.16193413713
 10
114.0747874833813
 20
633.16193413713
 10
114.0747874833813
 20
636.96193413713
 10
111.8747874833813
 20
636.96193413713
  0
CIRCLE
  5
4C9
330
18
100
AcDbEntity
  8
PART
100
AcDbCircle
 10
113.0544246479478
 20
635.1216396108682
 30
0.0
 40
4.0
  0
CIRCLE
  5
4CA
330
18
100
AcDbEntity
  8
PART
100
AcDbCircle
 10
144.326513927907
 20
639.1020136950726
 30
0.0
 40
2.0
  0
LINE
  5
4CB
330
18
100
AcDbEntity
  8
PART
100
AcDbLine
 10
318.826513927907
 20
509.9468864256501
 30
0.0
 11
318.826513927907
 21
606.7968864256502
 31
0.0
  0
LINE
  5
4CC
330
18
100
AcDbEntity
  8
PART
100
AcDbLine
 10
305.826513927907
 20
520.9888014368366
 30
0.0
 11
305.826513927907
 21
631.2544777848998
 31
0.0
  0
LINE
  5
4CD
330
18
100
AcDbEntity
  8
PART
100
AcDbLine
 10
311.326513927907
 20
513.9268361740767
 30
0.0
 11
311.326513927907
 21
638.3520136950726
 31
0.0
  0
LINE
  5
4CE
330
18
100
AcDbEntity
  8
0
100
AcDbLine
 10
209.9765139279071
 20
503.4468864256502
 30
0.0
 11
209.976513927907
 21
500.9468864256501
 31
0.0
  0
LINE
  5
4CF
330
18
100
AcDbEntity
  8
0
100
AcDbLine
 10
207.676513927907
 20
503.4468864256502
 30
0.0
 11
207.676513927907
 21
500.9468864256501
 31
0.0
  0
LINE
  5
4D0
330
18
100
AcDbEntity
  8
PART
100
AcDbLine
 10
207.676513927907
 20
503.4468864256502
 30
0.0
 11
209.976513927907
 21
503.4468864256502
 31
0.0
  0
LINE
  5
4D1
330
18
100
AcDbEntity
  8
PART
100
AcDbLine
 10
207.676513927907
 20
502.4468864256501
 30
0.0
 11
209.976513927907
 21
502.4468864256501
 31
0.0
  0
ARC
  5
4D2
330
18
100
AcDbEntity
  8
PART
100
AcDbCircle
 10
312.326513927907
 20
508.9468864256502
 30
0.0
 40
8.0
100
AcDbArc
 50
270.0
 51
0.0
  0
LINE
  5
4D3
330
18
100
AcDbEntity
  8
PART
100
AcDbLine
 10
262.676513927907
 20
503.4468864256502
 30
0.0
 11
264.976513927907
 21
503.4468864256502
 31
0.0
  0
LINE
  5
4D4
330
18
100
AcDbEntity
  8
PART
100
AcDbLine
 10
262.676513927907
 20
502.4468864256501
 30
0.0
 11
264.976513927907
 21
502.4468864256501
 31
0.0
  0
LINE
  5
4D5
330
18
100
AcDbEntity
  8
0
100
AcDbLine
 10
262.676513927907
 20
503.4468864256502
 30
0.0
 11
262.676513927907
 21
500.9468864256501
 31
0.0
  0
LINE
  5
4D6
330
18
100
AcDbEntity
  8
0
100
AcDbLine
 10
264.976513927907
 20
503.4468864256502
 30
0.0
 11
264.976513927907
 21
500.9468864256501
 31
0.0
  0
CIRCLE
  5
4D7
330
18
100
AcDbEntity
  8
PART
100
AcDbCircle
 10
304.8042324540591
 20
517.1216396108682
 30
0.0
 40
4.0
  0
LINE
  5
4D8
330
18
100
AcDbEntity
  8
PART
100
AcDbLine
 10
300.8042324540591
 20
517.1216396108682
 30
0.0
 11
300.8042324540591
 21
513.9468864256501
 31
0.0
  0
CIRCLE
  5
4D9
330
18
100
AcDbEntity
  8
PART
100
AcDbCircle
 10
311.726513927907
 20
509.9468864256501
 30
0.0
 40
2.0
  0
CIRCLE
  5
4DA
330
18
100
AcDbEntity
  8
PART
100
AcDbCircle
 10
311.726513927907
 20
509.9468864256501
 30
0.0
 40
4.0
  0
ARC
  5
4DB
330
18
100
AcDbEntity
  8
PART
100
AcDbCircle
 10
312.826513927907
 20
509.9468864256501
 30
0.0
 40
6.0
100
AcDbArc
 50
270.0
 51
0.0000000000000127
  0
LWPOLYLINE
  5
4DC
330
18
100
AcDbEntity
  8
PART
100
AcDbPolyline
 90
        4
 70
     1
 43
0.0
 10
303.7141486018964
 20
515.1736250270675
 10
305.9141486018964
 20
515.1736250270675
 10
305.9141486018964
 20
518.9736250270676
 10
303.7141486018964
 20
518.9736250270676
  0
LINE
  5
4DD
330
18
100
AcDbEntity
  8
PART
100
AcDbLine
 10
210.6805635496809
 20
639.8520136950726
 30
0.0
 11
271.4724643061331
 21
639.8520136950726
 31
0.0
  0
LINE
  5
4DE
330
18
100
AcDbEntity
  8
PART
100
AcDbLine
 10
210.6805635496809
 20
638.3520136950726
 30
0.0
 11
271.4724643061331
 21
638.3520136950726
 31
0.0
  0
CIRCLE
  5
4DF
330
18
100
AcDbEntity
  8
PART
100
AcDbCircle
 10
208.826513927907
 20
639.1020136950726
 30
0.0
 40
2.0
  0
LINE
  5
4E0
330
18
100
AcDbEntity
  8
PART
100
AcDbLine
 10
318.5265139279069
 20
551.7968864256501
 30
0.0
 11
318.5265139279069
 21
554.0968864256501
 31
0.0
  0
LINE
  5
4E1
330
18
100
AcDbEntity
  8
PART
100
AcDbLine
 10
317.826513927907
 20
551.7968864256501
 30
0.0
 11
317.826513927907
 21
554.0968864256501
 31
0.0
  0
LINE
  5
4E2
330
18
100
AcDbEntity
  8
PART
100
AcDbLine
 10
317.826513927907
 20
551.7968864256501
 30
0.0
 11
320.326513927907
 21
551.7968864256501
 31
0.0
  0
LINE
  5
4E3
330
18
100
AcDbEntity
  8
PART
100
AcDbLine
 10
317.826513927907
 20
554.0968864256501
 30
0.0
 11
320.326513927907
 21
554.0968864256501
 31
0.0
  0
LINE
  5
4E4
330
18
100
AcDbEntity
  8
PART
100
AcDbLine
 10
275.1805635496809
 20
639.8520136950726
 30
0.0
 11
318.526513927907
 21
639.8520136950726
 31
0.0
  0
LINE
  5
4E5
330
18
100
AcDbEntity
  8
PART
100
AcDbLine
 10
275.1805635496809
 20
638.3520136950726
 30
0.0
 11
302.445274362846
 21
638.3520136950726
 31
0.0
  0
CIRCLE
  5
4E6
330
18
100
AcDbEntity
  8
PART
100
AcDbCircle
 10
273.326513927907
 20
639.1020136950726
 30
0.0
 40
2.0
  0
LINE
  5
4E7
330
18
100
AcDbEntity
  8
PART
100
AcDbLine
 10
317.826513927907
 20
606.7968864256502
 30
0.0
 11
317.826513927907
 21
609.0968864256502
 31
0.0
  0
LINE
  5
4E8
330
18
100
AcDbEntity
  8
PART
100
AcDbLine
 10
318.5265139279069
 20
606.7968864256502
 30
0.0
 11
318.5265139279069
 21
609.0968864256502
 31
0.0
  0
LINE
  5
4E9
330
18
100
AcDbEntity
  8
PART
100
AcDbLine
 10
317.826513927907
 20
606.7968864256502
 30
0.0
 11
320.326513927907
 21
606.7968864256502
 31
0.0
  0
LINE
  5
4EA
330
18
100
AcDbEntity
  8
PART
100
AcDbLine
 10
317.826513927907
 20
609.0968864256502
 30
0.0
 11
320.326513927907
 21
609.0968864256502
 31
0.0
  0
CIRCLE
  5
4EB
330
18
100
AcDbEntity
  8
PART
100
AcDbCircle
 10
304.8042324540591
 20
635.1216396108682
 30
0.0
 40
4.0
  0
LINE
  5
4EC
330
18
100
AcDbEntity
  8
PART
100
AcDbLine
 10
307.1631905452723
 20
638.3520136950726
 30
0.0
 11
318.526513927907
 21
638.3520136950726
 31
0.0
  0
LWPOLYLINE
  5
4ED
330
18
100
AcDbEntity
  8
PART
100
AcDbPolyline
 90
        4
 70
     1
 43
0.0
 10
303.8778158475119
 20
633.1094943748999
 10
306.0778158475118
 20
633.1094943748999
 10
306.0778158475118
 20
636.9094943748998
 10
303.8778158475119
 20
636.9094943748998
  0
ARC
  5
4EE
330
18
100
AcDbEntity
  8
PART
100
AcDbCircle
 10
308.826513927907
 20
638.9468864256501
 30
0.0
 40
2.5
100
AcDbArc
 50
21.22620282528531
 51
90.0
  0
LINE
  5
4EF
330
18
100
AcDbEntity
  8
PART
100
AcDbLine
 10
207.676513927907
 20
711.9468864256502
 30
0.0
 11
154.976513927907
 21
711.9468864256502
 31
0.0
  0
LINE
  5
4F0
330
18
100
AcDbEntity
  8
PART
100
AcDbLine
 10
99.12651392790706
 20
647.14688642565
 30
0.0
 11
318.526513927907
 21
647.14688642565
 31
0.0
  0
LINE
  5
4F1
330
18
100
AcDbEntity
  8
PART
100
AcDbLine
 10
286.326513927907
 20
712.7468864256502
 30
0.0
 11
131.326513927907
 21
712.7468864256502
 31
0.0
  0
LINE
  5
4F2
330
18
100
AcDbEntity
  8
PART
100
AcDbLine
 10
311.826513927907
 20
714.4468864256501
 30
0.0
 11
105.826513927907
 21
714.4468864256501
 31
0.0
  0
LINE
  5
4F3
330
18
100
AcDbEntity
  8
PART
100
AcDbLine
 10
99.12651392790706
 20
705.9468864256501
 30
0.0
 11
99.12651392790706
 21
664.0968864256501
 31
0.0
  0
LINE
  5
4F4
330
18
100
AcDbEntity
  8
PART
100
AcDbLine
 10
97.32651392790707
 20
664.0968864256501
 30
0.0
 11
99.82651392790707
 21
664.0968864256501
 31
0.0
  0
LINE
  5
4F5
330
18
100
AcDbEntity
  8
PART
100
AcDbLine
 10
97.32651392790707
 20
661.7968864256502
 30
0.0
 11
99.82651392790707
 21
661.7968864256502
 31
0.0
  0
LINE
  5
4F6
330
18
100
AcDbEntity
  8
PART
100
AcDbLine
 10
98.82651392790705
 20
664.0968864256501
 30
0.0
 11
98.82651392790705
 21
661.7968864256502
 31
0.0
  0
LINE
  5
4F7
330
18
100
AcDbEntity
  8
PART
100
AcDbLine
 10
99.82651392790707
 20
664.0968864256501
 30
0.0
 11
99.82651392790707
 21
661.7968864256502
 31
0.0
  0
LINE
  5
4F8
330
18
100
AcDbEntity
  8
PART
100
AcDbLine
 10
152.676513927907
 20
711.9468864256502
 30
0.0
 11
105.126513927907
 21
711.9468864256502
 31
0.0
  0
ARC
  5
4F9
330
18
100
AcDbEntity
  8
PART
100
AcDbCircle
 10
105.826513927907
 20
703.4468864256502
 30
0.0
 40
11.0
100
AcDbArc
 50
90.0
 51
180.0
  0
CIRCLE
  5
4FA
330
18
100
AcDbEntity
  8
PART
100
AcDbCircle
 10
105.926513927907
 20
702.9468864256501
 30
0.0
 40
4.0
  0
CIRCLE
  5
4FB
330
18
100
AcDbEntity
  8
PART
100
AcDbCircle
 10
105.926513927907
 20
702.9468864256501
 30
0.0
 40
2.0
  0
ARC
  5
4FC
330
18
100
AcDbEntity
  8
PART
100
AcDbCircle
 10
105.126513927907
 20
705.9468864256501
 30
0.0
 40
6.0
100
AcDbArc
 50
90.0
 51
180.0
  0
ARC
  5
4FD
330
18
100
AcDbEntity
  8
PART
100
AcDbCircle
 10
105.326513927907
 20
703.9468864256502
 30
0.0
 40
8.0
100
AcDbArc
 50
90.0
 51
180.0
  0
ARC
  5
4FE
330
18
100
AcDbEntity
  8
PART
100
AcDbCircle
 10
129.8118529308533
 20
713.7806257951259
 30
0.0
 40
1.833797976877507
100
AcDbArc
 50
270.4580778330888
 51
325.6868960386181
  0
LINE
  5
4FF
330
18
100
AcDbEntity
  8
PART
100
AcDbLine
 10
154.976513927907
 20
710.9468864256501
 30
0.0
 11
152.676513927907
 21
710.9468864256501
 31
0.0
  0
LINE
  5
500
330
18
100
AcDbEntity
  8
PART
100
AcDbLine
 10
154.976513927907
 20
709.4468864256501
 30
0.0
 11
152.676513927907
 21
709.4468864256501
 31
0.0
  0
LINE
  5
501
330
18
100
AcDbEntity
  8
0
100
AcDbLine
 10
152.676513927907
 20
711.9468864256502
 30
0.0
 11
152.676513927907
 21
709.4468864256501
 31
0.0
  0
LINE
  5
502
330
18
100
AcDbEntity
  8
0
100
AcDbLine
 10
154.976513927907
 20
711.9468864256502
 30
0.0
 11
154.976513927907
 21
709.4468864256501
 31
0.0
  0
LINE
  5
503
330
18
100
AcDbEntity
  8
PART
100
AcDbLine
 10
262.676513927907
 20
711.9468864256503
 30
0.0
 11
209.976513927907
 21
711.9468864256502
 31
0.0
  0
LINE
  5
504
330
18
100
AcDbEntity
  8
PART
100
AcDbLine
 10
209.9765139279071
 20
710.9468864256503
 30
0.0
 11
207.676513927907
 21
710.9468864256501
 31
0.0
  0
LINE
  5
505
330
18
100
AcDbEntity
  8
PART
100
AcDbLine
 10
209.9765139279071
 20
709.4468864256501
 30
0.0
 11
207.676513927907
 21
709.4468864256501
 31
0.0
  0
LINE
  5
506
330
18
100
AcDbEntity
  8
0
100
AcDbLine
 10
209.976513927907
 20
711.9468864256502
 30
0.0
 11
209.9765139279071
 21
709.4468864256501
 31
0.0
  0
LINE
  5
507
330
18
100
AcDbEntity
  8
0
100
AcDbLine
 10
207.676513927907
 20
711.9468864256502
 30
0.0
 11
207.676513927907
 21
709.4468864256501
 31
0.0
  0
LINE
  5
508
330
18
100
AcDbEntity
  8
PART
100
AcDbLine
 10
318.5265139279069
 20
661.7968864256502
 30
0.0
 11
318.5265139279069
 21
664.0968864256501
 31
0.0
  0
LINE
  5
509
330
18
100
AcDbEntity
  8
PART
100
AcDbLine
 10
317.826513927907
 20
661.7968864256502
 30
0.0
 11
317.826513927907
 21
664.0968864256501
 31
0.0
  0
LINE
  5
50A
330
18
100
AcDbEntity
  8
PART
100
AcDbLine
 10
317.826513927907
 20
664.0968864256501
 30
0.0
 11
320.326513927907
 21
664.0968864256501
 31
0.0
  0
LINE
  5
50B
330
18
100
AcDbEntity
  8
PART
100
AcDbLine
 10
317.826513927907
 20
661.7968864256502
 30
0.0
 11
320.326513927907
 21
661.7968864256502
 31
0.0
  0
LINE
  5
50C
330
18
100
AcDbEntity
  8
PART
100
AcDbLine
 10
312.826513927907
 20
711.9468864256502
 30
0.0
 11
264.976513927907
 21
711.9468864256503
 31
0.0
  0
LINE
  5
50D
330
18
100
AcDbEntity
  8
PART
100
AcDbLine
 10
264.976513927907
 20
709.4468864256501
 30
0.0
 11
262.676513927907
 21
709.4468864256501
 31
0.0
  0
LINE
  5
50E
330
18
100
AcDbEntity
  8
PART
100
AcDbLine
 10
264.976513927907
 20
710.9468864256501
 30
0.0
 11
262.676513927907
 21
710.9468864256503
 31
0.0
  0
LINE
  5
50F
330
18
100
AcDbEntity
  8
0
100
AcDbLine
 10
262.676513927907
 20
711.9468864256502
 30
0.0
 11
262.676513927907
 21
709.4468864256501
 31
0.0
  0
LINE
  5
510
330
18
100
AcDbEntity
  8
0
100
AcDbLine
 10
264.976513927907
 20
711.9468864256502
 30
0.0
 11
264.976513927907
 21
709.4468864256501
 31
0.0
  0
ARC
  5
511
330
18
100
AcDbEntity
  8
PART
100
AcDbCircle
 10
287.8026616583785
 20
713.708413420284
 30
0.0
 40
1.761688475180987
100
AcDbArc
 50
213.0792498472435
 51
270.77577628105
  0
CIRCLE
  5
512
330
18
100
AcDbEntity
  8
PART
100
AcDbCircle
 10
311.726513927907
 20
702.9468864256501
 30
0.0
 40
2.0
  0
CIRCLE
  5
513
330
18
100
AcDbEntity
  8
PART
100
AcDbCircle
 10
311.726513927907
 20
702.9468864256501
 30
0.0
 40
4.0
  0
ARC
  5
514
330
18
100
AcDbEntity
  8
PART
100
AcDbCircle
 10
312.326513927907
 20
703.9468864256502
 30
0.0
 40
8.0
100
AcDbArc
 50
0.0
 51
90.0
  0
ARC
  5
515
330
18
100
AcDbEntity
  8
PART
100
AcDbCircle
 10
312.826513927907
 20
705.9468864256501
 30
0.0
 40
6.0
100
AcDbArc
 50
0.0
 51
89.99999999999992
  0
LINE
  5
516
330
18
100
AcDbEntity
  8
PART
100
AcDbLine
 10
322.826513927907
 20
509.4468864256501
 30
0.0
 11
322.826513927907
 21
703.4468864256502
 31
0.0
  0
DIMENSION
  5
545
330
18
100
AcDbEntity
  8
DIM
100
AcDbDimension
  2
*D7
 10
676.4139096924282
 20
713.4425829313634
 30
0.0
 11
672.9980421513467
 21
605.4425829313633
 31
0.0
 12
-201.7482399508226
 22
17.71707149009898
 32
0.0
 70
    32
  3
STANDARD
100
AcDbAlignedDimension
 13
647.9919840317109
 23
497.4425829313633
 33
0.0
 14
647.9919840317109
 24
713.4425829313634
 34
0.0
 50
90.0
100
AcDbRotatedDimension
1001
ACAD
1000
DSTYLE
1002
{
1070
    78
1070
     8
1070
   140
1040
2.7
1070
    74
1070
     0
1070
   172
1070
     1
1070
    73
1070
     0
1070
    77
1070
     1
1070
    40
1040
1.729553185357729
1070
     3
1000
mm
1070
   147
1040
0.625
1070
    42
1040
0.625
1070
    44
1040
1.25
1070
    43
1040
3.75
1070
   271
1070
     2
1070
   141
1040
2.5
1070
    41
1040
2.7
1070
     4
1000
"
1070
   273
1070
     8
1070
   274
1070
     4
1070
   143
1040
0.0394
1070
   171
1070
     4
1070
   170
1070
     1
1002
}
  0
LINE
  5
546
330
18
100
AcDbEntity
  8
PART
100
AcDbLine
 10
657.991984031711
 20
509.6425829313633
 30
0.0
 11
657.991984031711
 21
701.6425829313634
 31
0.0
  0
LINE
  5
547
330
18
100
AcDbEntity
  8
PART
100
AcDbLine
 10
431.991984031711
 20
701.6425829313634
 30
0.0
 11
431.991984031711
 21
509.6425829313633
 31
0.0
  0
LINE
  5
548
330
18
100
AcDbEntity
  8
CENTER
100
AcDbLine
 10
544.991984031711
 20
721.6606506395715
 30
0.0
 11
544.991984031711
 21
489.2895900110524
 31
0.0
  0
LINE
  5
549
330
18
100
AcDbEntity
  8
PART
100
AcDbLine
 10
430.9919840317109
 20
702.4425829313634
 30
0.0
 11
430.9919840317109
 21
508.4425829313634
 31
0.0
  0
LINE
  5
54A
330
18
100
AcDbEntity
  8
PART
100
AcDbLine
 10
658.991984031711
 20
508.4425829313634
 30
0.0
 11
658.991984031711
 21
702.4425829313634
 31
0.0
  0
DIMENSION
  5
54B
330
18
100
AcDbEntity
  8
DIM
100
AcDbDimension
  2
*D8
 10
644.991984031711
 20
614.8703756826297
 30
0.0
 11
499.5661999079372
 21
614.8703756826297
 31
0.0
 12
-201.7482399508226
 22
17.71707149009898
 32
0.0
 70
   160
  3
STANDARD
100
AcDbAlignedDimension
 13
444.991984031711
 23
640.3425829313634
 33
0.0
 14
644.991984031711
 24
640.3425829313635
 34
0.0
100
AcDbRotatedDimension
1001
ACAD
1000
DSTYLE
1002
{
1070
    78
1070
     8
1070
   140
1040
2.7
1070
    74
1070
     0
1070
   172
1070
     1
1070
    73
1070
     0
1070
    77
1070
     1
1070
    40
1040
1.729553185357729
1070
     3
1000
mm
1070
   147
1040
0.625
1070
    42
1040
0.625
1070
    44
1040
1.25
1070
    43
1040
3.75
1070
   271
1070
     2
1070
   141
1040
2.5
1070
    41
1040
2.7
1070
     4
1000
"
1070
   273
1070
     8
1070
   274
1070
     4
1070
   143
1040
0.0394
1070
   171
1070
     4
1070
   170
1070
     1
1002
}
  0
LINE
  5
54C
330
18
100
AcDbEntity
  8
PART
100
AcDbLine
 10
442.7919840317109
 20
498.8425829313634
 30
0.0
 11
647.1919840317109
 21
498.8425829313634
 31
0.0
  0
LINE
  5
54D
330
18
100
AcDbEntity
  8
PART
100
AcDbLine
 10
444.991984031711
 20
640.3425829313634
 30
0.0
 11
644.991984031711
 21
640.3425829313635
 31
0.0
  0
LINE
  5
54E
330
18
100
AcDbEntity
  8
PART
100
AcDbLine
 10
444.991984031711
 20
510.3425829313634
 30
0.0
 11
644.991984031711
 21
510.3425829313634
 31
0.0
  0
LINE
  5
54F
330
18
100
AcDbEntity
  8
PART
100
AcDbLine
 10
454.6751122305701
 20
634.9425829313633
 30
0.0
 11
635.1690492121916
 21
634.9425829313633
 31
0.0
  0
LINE
  5
550
330
18
100
AcDbEntity
  8
PART
100
AcDbLine
 10
455.0614636936194
 20
512.9425829313634
 30
0.0
 11
635.3642321723465
 21
512.9425829313634
 31
0.0
  0
LINE
  5
551
330
18
100
AcDbEntity
  8
PART
100
AcDbLine
 10
441.991984031711
 20
497.4425829313633
 30
0.0
 11
647.9919840317109
 21
497.4425829313633
 31
0.0
  0
LINE
  5
552
330
18
100
AcDbEntity
  8
PART
100
AcDbLine
 10
444.991984031711
 20
640.3425829313634
 30
0.0
 11
444.991984031711
 21
510.3425829313634
 31
0.0
  0
LINE
  5
553
330
18
100
AcDbEntity
  8
PART
100
AcDbLine
 10
447.9919840317109
 20
630.753630623913
 30
0.0
 11
447.9919840317109
 21
518.6821547466467
 31
0.0
  0
ARC
  5
554
330
18
100
AcDbEntity
  8
PART
100
AcDbCircle
 10
442.7919840317109
 20
509.6425829313633
 30
0.0
 40
10.8
100
AcDbArc
 50
180.0
 51
270.0
  0
ARC
  5
555
330
18
100
AcDbEntity
  8
PART
100
AcDbCircle
 10
441.991984031711
 20
508.4425829313634
 30
0.0
 40
11.0
100
AcDbArc
 50
180.0
 51
270.0
  0
ARC
  5
556
330
18
100
AcDbEntity
  8
PART
100
AcDbCircle
 10
451.0614636936194
 20
516.1173361165814
 30
0.0
 40
4.0
100
AcDbArc
 50
0.0
 51
140.1182934616429
  0
LWPOLYLINE
  5
557
330
18
100
AcDbEntity
  8
PART
100
AcDbPolyline
 90
        4
 70
     1
 43
0.0
 10
449.8676409321376
 20
514.2912343109819
 10
452.0676409321376
 20
514.2912343109819
 10
452.0676409321376
 20
518.091234310982
 10
449.8676409321376
 20
518.091234310982
  0
LINE
  5
558
330
18
100
AcDbEntity
  8
PART
100
AcDbLine
 10
455.0614636936194
 20
516.1173361165814
 30
0.0
 11
455.0614636936194
 21
512.9425829313634
 31
0.0
  0
ARC
  5
559
330
18
100
AcDbEntity
  8
PART
100
AcDbCircle
 10
450.9784228719669
 20
633.4146798631062
 30
0.0
 40
4.0
100
AcDbArc
 50
221.7024522316637
 51
22.4561200270704
  0
LWPOLYLINE
  5
55A
330
18
100
AcDbEntity
  8
PART
100
AcDbPolyline
 90
        4
 70
     1
 43
0.0
 10
449.7987857074004
 20
631.4549743893681
 10
451.9987857074004
 20
631.4549743893681
 10
451.9987857074004
 20
635.254974389368
 10
449.7987857074004
 20
635.254974389368
  0
DIMENSION
  5
55B
330
18
100
AcDbEntity
  8
DIM
100
AcDbDimension
  2
*D9
 10
604.5846018411919
 20
640.3425829313635
 30
0.0
 11
604.5846018411919
 21
566.5838520125324
 31
0.0
 12
-201.7482399508226
 22
17.71707149009898
 32
0.0
 70
   160
  3
STANDARD
100
AcDbAlignedDimension
 13
644.991984031711
 23
510.3425829313634
 33
0.0
 14
644.991984031711
 24
640.3425829313635
 34
0.0
 50
90.0
100
AcDbRotatedDimension
1001
ACAD
1000
DSTYLE
1002
{
1070
    78
1070
     8
1070
   140
1040
2.7
1070
    74
1070
     0
1070
   172
1070
     1
1070
    73
1070
     0
1070
    77
1070
     1
1070
    40
1040
1.729553185357729
1070
     3
1000
mm
1070
   147
1040
0.625
1070
    42
1040
0.625
1070
    44
1040
1.25
1070
    43
1040
3.75
1070
   271
1070
     2
1070
   141
1040
2.5
1070
    41
1040
2.7
1070
     4
1000
"
1070
   273
1070
     8
1070
   274
1070
     4
1070
   143
1040
0.0394
1070
   171
1070
     4
1070
   170
1070
     1
1002
}
  0
LINE
  5
55C
330
18
100
AcDbEntity
  8
PART
100
AcDbLine
 10
644.991984031711
 20
640.3425829313635
 30
0.0
 11
644.991984031711
 21
510.3425829313634
 31
0.0
  0
LINE
  5
55D
330
18
100
AcDbEntity
  8
PART
100
AcDbLine
 10
641.991984031711
 20
519.1331146504937
 30
0.0
 11
641.991984031711
 21
630.9885308820813
 31
0.0
  0
ARC
  5
55E
330
18
100
AcDbEntity
  8
PART
100
AcDbCircle
 10
647.1919840317109
 20
509.6425829313633
 30
0.0
 40
10.8
100
AcDbArc
 50
270.0
 51
0.0
  0
ARC
  5
55F
330
18
100
AcDbEntity
  8
PART
100
AcDbCircle
 10
647.9919840317109
 20
508.4425829313634
 30
0.0
 40
11.0
100
AcDbArc
 50
270.0
 51
0.0
  0
LWPOLYLINE
  5
560
330
18
100
AcDbEntity
  8
PART
100
AcDbPolyline
 90
        4
 70
     1
 43
0.0
 10
638.2741483201838
 20
514.1693215327807
 10
640.4741483201838
 20
514.1693215327807
 10
640.4741483201838
 20
517.9693215327808
 10
638.2741483201838
 20
517.9693215327808
  0
ARC
  5
561
330
18
100
AcDbEntity
  8
PART
100
AcDbCircle
 10
639.3642321723465
 20
516.1173361165814
 30
0.0
 40
4.0
100
AcDbArc
 50
48.93323942816341
 51
180.0
  0
LINE
  5
562
330
18
100
AcDbEntity
  8
PART
100
AcDbLine
 10
635.3642321723465
 20
516.1173361165814
 30
0.0
 11
635.3642321723465
 21
512.9425829313634
 31
0.0
  0
ARC
  5
563
330
18
100
AcDbEntity
  8
PART
100
AcDbCircle
 10
638.9180879350787
 20
633.5480548196738
 30
0.0
 40
4.0
100
AcDbArc
 50
159.5963333594335
 51
320.2170546214149
  0
LWPOLYLINE
  5
564
330
18
100
AcDbEntity
  8
PART
100
AcDbPolyline
 90
        4
 70
     1
 43
0.0
 10
637.9916713285314
 20
631.5359095837054
 10
640.1916713285313
 20
631.5359095837054
 10
640.1916713285313
 20
635.3359095837054
 10
637.9916713285314
 20
635.3359095837054
  0
DIMENSION
  5
565
330
18
100
AcDbEntity
  8
DIM
100
AcDbDimension
  2
*D10
 10
658.991984031711
 20
731.3785838994926
 30
0.0
 11
544.991984031711
 21
734.7944514405741
 31
0.0
 12
-201.7482399508226
 22
17.71707149009898
 32
0.0
 70
    32
  3
STANDARD
100
AcDbAlignedDimension
 13
430.9919840317109
 23
702.4425829313634
 33
0.0
 14
658.991984031711
 24
702.4425829313634
 34
0.0
100
AcDbRotatedDimension
1001
ACAD
1000
DSTYLE
1002
{
1070
    78
1070
     8
1070
   140
1040
2.7
1070
    74
1070
     0
1070
   172
1070
     1
1070
    73
1070
     0
1070
    77
1070
     1
1070
    40
1040
1.729553185357729
1070
     3
1000
mm
1070
   147
1040
0.625
1070
    42
1040
0.625
1070
    44
1040
1.25
1070
    43
1040
3.75
1070
   271
1070
     2
1070
   141
1040
2.5
1070
    41
1040
2.7
1070
     4
1000
"
1070
   273
1070
     8
1070
   274
1070
     4
1070
   143
1040
0.0394
1070
   171
1070
     4
1070
   170
1070
     1
1002
}
  0
LINE
  5
566
330
18
100
AcDbEntity
  8
PART
100
AcDbLine
 10
647.1919840317109
 20
712.4425829313634
 30
0.0
 11
442.7919840317109
 21
712.4425829313634
 31
0.0
  0
LINE
  5
567
330
18
100
AcDbEntity
  8
PART
100
AcDbLine
 10
431.991984031711
 20
648.3425829313634
 30
0.0
 11
657.991984031711
 21
648.3425829313635
 31
0.0
  0
LINE
  5
568
330
18
100
AcDbEntity
  8
PART
100
AcDbLine
 10
647.9919840317109
 20
713.4425829313634
 30
0.0
 11
441.991984031711
 21
713.4425829313634
 31
0.0
  0
ARC
  5
569
330
18
100
AcDbEntity
  8
PART
100
AcDbCircle
 10
442.7919840317109
 20
701.6425829313634
 30
0.0
 40
10.8
100
AcDbArc
 50
90.0
 51
180.0
  0
ARC
  5
56A
330
18
100
AcDbEntity
  8
PART
100
AcDbCircle
 10
441.991984031711
 20
702.4425829313634
 30
0.0
 40
11.0
100
AcDbArc
 50
90.0
 51
180.0
  0
ARC
  5
56B
330
18
100
AcDbEntity
  8
PART
100
AcDbCircle
 10
647.1919840317109
 20
701.6425829313634
 30
0.0
 40
10.8
100
AcDbArc
 50
0.0
 51
90.0
  0
ARC
  5
56C
330
18
100
AcDbEntity
  8
PART
100
AcDbCircle
 10
647.9919840317109
 20
702.4425829313634
 30
0.0
 40
11.0
100
AcDbArc
 50
0.0
 51
90.0
  0
DIMENSION
  5
5C9
330
18
100
AcDbEntity
  8
DIM
100
AcDbDimension
  2
*D11
 10
439.8137693639961
 20
376.4748846714346
 30
0.0
 11
437.6887693639961
 21
351.4672978203591
 31
0.0
 12
-452.2645710406331
 22
57.58048508993033
 32
0.0
 70
    32
  3
STANDARD
100
AcDbAlignedDimension
 13
392.2283543750697
 23
326.4597109692835
 33
0.0
 14
405.0632303321771
 24
376.4748846714346
 34
0.0
 50
90.0
100
AcDbRotatedDimension
1001
ACAD
1000
DSTYLE
1002
{
1070
    78
1070
     8
1070
   140
1040
3.0
1070
    74
1070
     0
1070
   172
1070
     1
1070
    73
1070
     0
1070
    77
1070
     1
1070
     3
1000
mm
1070
   147
1040
0.625
1070
    42
1040
0.625
1070
    44
1040
1.25
1070
    43
1040
3.75
1070
   271
1070
     2
1070
   141
1040
2.5
1070
    41
1040
3.0
1070
     4
1000
"
1070
   273
1070
     8
1070
   274
1070
     4
1070
   143
1040
0.0394
1070
   171
1070
     4
1070
   170
1070
     1
1002
}
  0
DIMENSION
  5
5CA
330
18
100
AcDbEntity
  8
DIM
100
AcDbDimension
  2
*D12
 10
429.0951337683837
 20
376.4748846714346
 30
0.0
 11
418.3145935517909
 21
362.555745132591
 31
0.0
 70
    34
  3
STANDARD
100
AcDb2LineAngularDimension
 13
405.0632303321771
 23
376.4748846714346
 33
0.0
 14
257.695957363262
 24
402.4597109692836
 34
0.0
 15
405.0632303321772
 25
376.4748846714346
 35
0.0
 16
425.2840597522106
 26
375.2971554729758
 36
0.0
1001
ACAD
1000
DSTYLE
1002
{
1070
   271
1070
     2
1070
     4
1000
"
1070
    41
1040
3.0
1070
    42
1040
0.625
1070
    43
1040
3.75
1070
    44
1040
1.25
1070
    73
1070
     0
1070
    74
1070
     0
1070
    77
1070
     1
1070
    78
1070
     8
1070
   140
1040
3.0
1070
   141
1040
2.5
1070
   143
1040
0.0394
1070
   147
1040
0.625
1070
   170
1070
     1
1070
   171
1070
     4
1070
   172
1070
     1
1070
   179
1070
     2
1070
   271
1070
     2
1070
   273
1070
     8
1070
   274
1070
     4
1002
}
  0
LINE
  5
5CB
330
18
100
AcDbEntity
  8
HIDEN
100
AcDbLine
 10
405.0422857991763
 20
373.9400112279866
 30
0.0
 11
395.954532741016
 21
375.5424272861561
 31
0.0
  0
LINE
  5
5CC
330
18
100
AcDbEntity
  8
DIM
100
AcDbLine
 10
405.0632303321771
 20
376.4748846714345
 30
0.0
 11
257.695957363262
 21
402.4597109692836
 31
0.0
  0
LINE
  5
5CD
330
18
100
AcDbEntity
  8
DIM
100
AcDbLine
 10
406.5422857991762
 20
337.8597109692834
 30
0.0
 11
393.5139295944429
 21
326.9276220830455
 31
0.0
  0
LINE
  5
5CE
330
18
100
AcDbEntity
  8
DIM
100
AcDbLine
 10
190.5422857991762
 20
337.8597109692834
 30
0.0
 11
406.5422857991762
 21
337.8597109692834
 31
0.0
  0
LINE
  5
5CF
330
18
100
AcDbEntity
  8
DIM
100
AcDbLine
 10
189.5422857991762
 20
346.4597109692835
 30
0.0
 11
407.5422857991762
 21
346.4597109692835
 31
0.0
  0
LINE
  5
5D0
330
18
100
AcDbEntity
  8
HIDEN
100
AcDbLine
 10
192.0422857991762
 20
346.4597109692835
 30
0.0
 11
192.0422857991762
 21
399.9597109692834
 31
0.0
  0
DIMENSION
  5
5D1
330
18
100
AcDbEntity
  8
DIM
100
AcDbDimension
  2
*D13
 10
155.1460971825825
 20
402.4597109692835
 30
0.0
 11
153.0210971825825
 21
364.4597109692834
 31
0.0
 12
-452.2645710406331
 22
57.58048508993033
 32
0.0
 70
    32
  3
STANDARD
100
AcDbAlignedDimension
 13
201.0406369109073
 23
326.4597109692835
 33
0.0
 14
189.8422857991762
 24
402.4597109692835
 34
0.0
 50
90.0
100
AcDbRotatedDimension
1001
ACAD
1000
DSTYLE
1002
{
1070
    78
1070
     8
1070
   140
1040
3.0
1070
    74
1070
     0
1070
   172
1070
     1
1070
    73
1070
     0
1070
    77
1070
     1
1070
     3
1000
mm
1070
   147
1040
0.625
1070
    42
1040
0.625
1070
    44
1040
1.25
1070
    43
1040
3.75
1070
   271
1070
     2
1070
   141
1040
2.5
1070
    41
1040
3.0
1070
     4
1000
"
1070
   273
1070
     8
1070
   274
1070
     4
1070
   143
1040
0.0394
1070
   171
1070
     4
1070
   170
1070
     1
1002
}
  0
DIMENSION
  5
5D2
330
18
100
AcDbEntity
  8
DIM
100
AcDbDimension
  2
*D14
 10
273.8354407670597
 20
431.6108039547066
 30
0.0
 11
338.2169470903952
 21
422.4163888815072
 31
0.0
 12
-452.2645710406331
 22
57.58048508993033
 32
0.0
 70
    33
  3
STANDARD
100
AcDbAlignedDimension
 13
396.3886531851833
 23
378.0044466686867
 33
0.0
 14
268.3636452935962
 24
400.5787097653875
 34
0.0
1001
ACAD
1000
DSTYLE
1002
{
1070
    78
1070
     8
1070
   140
1040
3.0
1070
    74
1070
     0
1070
   172
1070
     1
1070
    73
1070
     0
1070
    77
1070
     1
1070
     3
1000
mm
1070
   147
1040
0.625
1070
    42
1040
0.625
1070
    44
1040
1.25
1070
    43
1040
3.75
1070
   271
1070
     2
1070
   141
1040
2.5
1070
    41
1040
3.0
1070
     4
1000
"
1070
   273
1070
     8
1070
   274
1070
     4
1070
   143
1040
0.0394
1070
   171
1070
     4
1070
   170
1070
     1
1002
}
  0
DIMENSION
  5
5D3
330
18
100
AcDbEntity
  8
DIM
100
AcDbDimension
  2
*D15
 10
274.8543992972905
 20
420.1132934927192
 30
0.0
 11
336.2814823615896
 21
411.4398229525205
 31
0.0
 12
-452.2645710406331
 22
57.58048508993033
 32
0.0
 70
    33
  3
STANDARD
100
AcDbAlignedDimension
 13
393.4342299261466
 23
378.5253912016874
 33
0.0
 14
271.3180685526328
 24
400.0577652323868
 34
0.0
1001
ACAD
1000
DSTYLE
1002
{
1070
    78
1070
     8
1070
   140
1040
3.0
1070
    74
1070
     0
1070
   172
1070
     1
1070
    73
1070
     0
1070
    77
1070
     1
1070
     3
1000
mm
1070
   147
1040
0.625
1070
    42
1040
0.625
1070
    44
1040
1.25
1070
    43
1040
3.75
1070
   271
1070
     2
1070
   141
1040
2.5
1070
    41
1040
3.0
1070
     4
1000
"
1070
   273
1070
     8
1070
   274
1070
     4
1070
   143
1040
0.0394
1070
   171
1070
     4
1070
   170
1070
     1
1002
}
  0
DIMENSION
  5
5D4
330
18
100
AcDbEntity
  8
DIM
100
AcDbDimension
  2
*D16
 10
275.675129707845
 20
409.4059388207478
 30
0.0
 11
334.1477895131075
 21
401.25341281355
 31
0.0
 12
-452.2645710406331
 22
57.58048508993033
 32
0.0
 70
    33
  1
118mm [4.649"]
  3
STANDARD
100
AcDbAlignedDimension
 13
389.753040449716
 23
376.839003020145
 33
0.0
 14
273.5457255942756
 24
397.3294879848427
 34
0.0
1001
ACAD
1000
DSTYLE
1002
{
1070
    78
1070
     8
1070
   140
1040
3.0
1070
    74
1070
     0
1070
   172
1070
     1
1070
    73
1070
     0
1070
    77
1070
     1
1070
     3
1000
mm
1070
   147
1040
0.625
1070
    42
1040
0.625
1070
    44
1040
1.25
1070
    43
1040
3.75
1070
   271
1070
     2
1070
   141
1040
2.5
1070
    41
1040
3.0
1070
     4
1000
"
1070
   273
1070
     8
1070
   274
1070
     4
1070
   143
1040
0.0394
1070
   171
1070
     4
1070
   170
1070
     1
1002
}
  0
LINE
  5
5D5
330
18
100
AcDbEntity
  8
HIDEN
100
AcDbLine
 10
385.3449593579665
 20
374.8746147976798
 30
0.0
 11
277.0161065266236
 21
393.975914341042
 31
0.0
  0
LINE
  5
5D6
330
18
100
AcDbEntity
  8
HIDEN
100
AcDbLine
 10
277.0161065266236
 20
393.975914341042
 30
0.0
 11
275.9915822783888
 21
388.16554859827
 31
0.0
  0
LINE
  5
5D7
330
18
100
AcDbEntity
  8
HIDEN
100
AcDbLine
 10
269.1376445025259
 20
395.3650997623775
 30
0.0
 11
268.113120254291
 21
389.5547340196054
 31
0.0
  0
LINE
  5
5D8
330
18
100
AcDbEntity
  8
DIM
100
AcDbLine
 10
273.5457255942756
 20
397.3294879848427
 30
0.0
 11
272.0523512663398
 21
388.8601413089377
 31
0.0
  0
LINE
  5
5D9
330
18
100
AcDbEntity
  8
HIDEN
100
AcDbLine
 10
393.0348391175127
 20
376.2603333697593
 30
0.0
 11
270.9186777439989
 21
397.7927074004586
 31
0.0
  0
LINE
  5
5DA
330
18
100
AcDbEntity
  8
DIM
100
AcDbLine
 10
189.5422857991762
 20
346.4597109692835
 30
0.0
 11
189.5422857991762
 21
402.1597109692835
 31
0.0
  0
LINE
  5
5DB
330
18
100
AcDbEntity
  8
HIDEN
100
AcDbLine
 10
201.2737907399847
 20
328.9597109692834
 30
0.0
 11
392.0463692579366
 21
328.9597109692834
 31
0.0
  0
LINE
  5
5DC
330
18
100
AcDbEntity
  8
DIM
100
AcDbLine
 10
201.0406369109073
 20
326.4597109692835
 30
0.0
 11
392.2283543750697
 21
326.4597109692835
 31
0.0
  0
DIMENSION
  5
5DD
330
18
100
AcDbEntity
  8
DIM
100
AcDbDimension
  2
*D17
 10
234.2424529621804
 20
326.4597109692835
 30
0.0
 11
232.1174529621804
 21
304.5847109692835
 31
0.0
 12
-452.2645710406331
 22
57.58048508993033
 32
0.0
 70
    32
  3
STANDARD
100
AcDbAlignedDimension
 13
207.6344956429885
 23
333.9597109692835
 33
0.0
 14
207.6344956429885
 24
326.4597109692835
 34
0.0
 50
90.0
100
AcDbRotatedDimension
1001
ACAD
1000
DSTYLE
1002
{
1070
    78
1070
     8
1070
   140
1040
3.0
1070
    74
1070
     0
1070
   172
1070
     1
1070
    73
1070
     0
1070
    77
1070
     1
1070
     3
1000
mm
1070
   147
1040
0.625
1070
    42
1040
0.625
1070
    44
1040
1.25
1070
    43
1040
3.75
1070
   271
1070
     2
1070
   141
1040
2.5
1070
    41
1040
3.0
1070
     4
1000
"
1070
   273
1070
     8
1070
   274
1070
     4
1070
   143
1040
0.0394
1070
   171
1070
     4
1070
   170
1070
     1
1002
}
  0
DIMENSION
  5
5DE
330
18
100
AcDbEntity
  8
DIM
100
AcDbDimension
  2
*D18
 10
176.489992564034
 20
326.4597109692835
 30
0.0
 11
174.364992564034
 21
305.5847109692834
 31
0.0
 12
-452.2645710406331
 22
57.58048508993033
 32
0.0
 70
    32
  3
STANDARD
100
AcDbAlignedDimension
 13
189.5422857991762
 23
346.4597109692835
 33
0.0
 14
201.0406369109073
 24
326.4597109692835
 34
0.0
 50
90.0
100
AcDbRotatedDimension
1001
ACAD
1000
DSTYLE
1002
{
1070
    78
1070
     8
1070
   140
1040
3.0
1070
    74
1070
     0
1070
   172
1070
     1
1070
    73
1070
     0
1070
    77
1070
     1
1070
     3
1000
mm
1070
   147
1040
0.625
1070
    42
1040
0.625
1070
    44
1040
1.25
1070
    43
1040
3.75
1070
   271
1070
     2
1070
   141
1040
2.5
1070
    41
1040
3.0
1070
     4
1000
"
1070
   273
1070
     8
1070
   274
1070
     4
1070
   143
1040
0.0394
1070
   171
1070
     4
1070
   170
1070
     1
1002
}
  0
LINE
  5
5DF
330
18
100
AcDbEntity
  8
HIDEN
100
AcDbLine
 10
193.0422857991762
 20
338.7696365549489
 30
0.0
 11
193.0422857991762
 21
346.4597109692835
 31
0.0
  0
LINE
  5
5E0
330
18
100
AcDbEntity
  8
DIM
100
AcDbLine
 10
190.5422857991762
 20
337.8597109692834
 30
0.0
 11
190.5422857991762
 21
346.4597109692835
 31
0.0
  0
LINE
  5
5E1
330
18
100
AcDbEntity
  8
HIDEN
100
AcDbLine
 10
199.6344956429885
 20
333.9597109692835
 30
0.0
 11
207.6344956429885
 21
333.9597109692835
 31
0.0
  0
LINE
  5
5E2
330
18
100
AcDbEntity
  8
CENTER
100
AcDbLine
 10
203.6344956429885
 20
335.1696659553239
 30
0.0
 11
203.6344956429885
 21
325.4224713415887
 31
0.0
  0
LINE
  5
5E3
330
18
100
AcDbEntity
  8
HIDEN
100
AcDbLine
 10
199.6344956429885
 20
330.9133467904509
 30
0.0
 11
199.6344956429885
 21
333.9597109692835
 31
0.0
  0
LINE
  5
5E4
330
18
100
AcDbEntity
  8
HIDEN
100
AcDbLine
 10
193.0422857991762
 20
338.7696365549489
 30
0.0
 11
201.2737907399847
 21
328.9597109692834
 31
0.0
  0
LINE
  5
5E5
330
18
100
AcDbEntity
  8
DIM
100
AcDbLine
 10
190.5422857991762
 20
337.8597109692834
 30
0.0
 11
199.5085480246692
 21
327.1741357499104
 31
0.0
  0
ARC
  5
5E6
330
18
100
AcDbEntity
  8
DIM
100
AcDbCircle
 10
201.0406369109073
 20
328.4597109692835
 30
0.0
 40
2.0
100
AcDbArc
 50
220.0
 51
270.0
  0
LINE
  5
5E7
330
18
100
AcDbEntity
  8
HIDEN
100
AcDbLine
 10
207.6344956429885
 20
328.9597109692834
 30
0.0
 11
207.6344956429885
 21
333.9597109692835
 31
0.0
  0
LINE
  5
5E8
330
18
100
AcDbEntity
  8
CENTER
100
AcDbLine
 10
296.6344956429885
 20
335.4939495832322
 30
0.0
 11
296.6344956429885
 21
325.4407093239062
 31
0.0
  0
LINE
  5
5E9
330
18
100
AcDbEntity
  8
HIDEN
100
AcDbLine
 10
300.6344956429885
 20
328.9597109692834
 30
0.0
 11
300.6344956429885
 21
333.9597109692835
 31
0.0
  0
LINE
  5
5EA
330
18
100
AcDbEntity
  8
HIDEN
100
AcDbLine
 10
292.6344956429885
 20
328.9597109692834
 30
0.0
 11
292.6344956429885
 21
333.9597109692835
 31
0.0
  0
LINE
  5
5EB
330
18
100
AcDbEntity
  8
HIDEN
100
AcDbLine
 10
292.6344956429885
 20
333.9597109692835
 30
0.0
 11
300.6344956429885
 21
333.9597109692835
 31
0.0
  0
LINE
  5
5EC
330
18
100
AcDbEntity
  8
HIDEN
100
AcDbLine
 10
275.9915822783888
 20
388.16554859827
 30
0.0
 11
268.113120254291
 21
389.5547340196054
 31
0.0
  0
LINE
  5
5ED
330
18
100
AcDbEntity
  8
HIDEN
100
AcDbLine
 10
404.0422857991762
 20
339.0254801146709
 30
0.0
 11
404.0422857991762
 21
346.4597109692835
 31
0.0
  0
LINE
  5
5EE
330
18
100
AcDbEntity
  8
CENTER
100
AcDbLine
 10
331.6344956429885
 20
335.9543518041368
 30
0.0
 11
331.6344956429885
 21
323.8913535440398
 31
0.0
  0
LINE
  5
5EF
330
18
100
AcDbEntity
  8
HIDEN
100
AcDbLine
 10
327.6344956429885
 20
328.9597109692834
 30
0.0
 11
327.6344956429885
 21
333.9597109692835
 31
0.0
  0
LINE
  5
5F0
330
18
100
AcDbEntity
  8
HIDEN
100
AcDbLine
 10
335.6344956429885
 20
328.9597109692834
 30
0.0
 11
335.6344956429885
 21
333.9597109692835
 31
0.0
  0
LINE
  5
5F1
330
18
100
AcDbEntity
  8
HIDEN
100
AcDbLine
 10
327.6344956429885
 20
333.9597109692835
 30
0.0
 11
335.6344956429885
 21
333.9597109692835
 31
0.0
  0
LINE
  5
5F2
330
18
100
AcDbEntity
  8
CENTER
100
AcDbLine
 10
389.6344956429885
 20
336.505945742251
 30
0.0
 11
389.6344956429885
 21
323.5933152285511
 31
0.0
  0
LINE
  5
5F3
330
18
100
AcDbEntity
  8
HIDEN
100
AcDbLine
 10
385.6344956429885
 20
328.9597109692834
 30
0.0
 11
385.6344956429885
 21
333.9597109692835
 31
0.0
  0
LINE
  5
5F4
330
18
100
AcDbEntity
  8
HIDEN
100
AcDbLine
 10
393.6344956429885
 20
330.2923072332433
 30
0.0
 11
393.6344956429885
 21
333.9597109692835
 31
0.0
  0
LINE
  5
5F5
330
18
100
AcDbEntity
  8
HIDEN
100
AcDbLine
 10
404.0422857991762
 20
339.0254801146709
 30
0.0
 11
392.0463692579366
 21
328.9597109692834
 31
0.0
  0
ARC
  5
5F6
330
18
100
AcDbEntity
  8
DIM
100
AcDbCircle
 10
392.2283543750697
 20
328.4597109692835
 30
0.0
 40
2.0
100
AcDbArc
 50
270.0
 51
310.0
  0
LINE
  5
5F7
330
18
100
AcDbEntity
  8
HIDEN
100
AcDbLine
 10
385.6344956429885
 20
333.9597109692835
 30
0.0
 11
393.6344956429885
 21
333.9597109692835
 31
0.0
  0
LINE
  5
5F8
330
18
100
AcDbEntity
  8
HIDEN
100
AcDbLine
 10
393.2234213820642
 20
373.4854293763443
 30
0.0
 11
392.1988971338294
 21
367.6750636335722
 31
0.0
  0
LINE
  5
5F9
330
18
100
AcDbEntity
  8
HIDEN
100
AcDbLine
 10
392.1988971338294
 20
367.6750636335722
 30
0.0
 11
384.3204351097316
 21
369.0642490549076
 31
0.0
  0
LINE
  5
5FA
330
18
100
AcDbEntity
  8
HIDEN
100
AcDbLine
 10
385.3449593579665
 20
374.8746147976798
 30
0.0
 11
384.3204351097316
 21
369.0642490549076
 31
0.0
  0
LINE
  5
5FB
330
18
100
AcDbEntity
  8
HIDEN
100
AcDbLine
 10
395.5204122968487
 20
373.0804079036256
 30
0.0
 11
393.2234213820642
 21
373.4854293763443
 31
0.0
  0
LINE
  5
5FC
330
18
100
AcDbEntity
  8
DIM
100
AcDbLine
 10
389.753040449716
 20
376.839003020145
 30
0.0
 11
388.2596661217804
 21
368.3696563442399
 31
0.0
  0
LINE
  5
5FD
330
18
100
AcDbEntity
  8
HIDEN
100
AcDbLine
 10
393.4342299261466
 20
378.5253912016874
 30
0.0
 11
393.0348391175127
 21
376.2603333697593
 31
0.0
  0
LINE
  5
5FE
330
18
100
AcDbEntity
  8
HIDEN
100
AcDbLine
 10
396.3886531851833
 20
378.0044466686867
 30
0.0
 11
395.5204122968487
 21
373.0804079036256
 31
0.0
  0
LINE
  5
5FF
330
18
100
AcDbEntity
  8
HIDEN
100
AcDbLine
 10
192.0422857991762
 20
399.9597109692834
 30
0.0
 11
257.4772357044474
 21
399.9597109692836
 31
0.0
  0
LINE
  5
600
330
18
100
AcDbEntity
  8
DIM
100
AcDbLine
 10
189.8422857991762
 20
402.4597109692835
 30
0.0
 11
257.695957363262
 21
402.4597109692836
 31
0.0
  0
ARC
  5
601
330
18
100
AcDbEntity
  8
DIM
100
AcDbCircle
 10
189.8422857991762
 20
402.1597109692835
 30
0.0
 40
0.3
100
AcDbArc
 50
90.0
 51
180.0
  0
LINE
  5
602
330
18
100
AcDbEntity
  8
HIDEN
100
AcDbLine
 10
267.9295248494289
 20
398.1166903828571
 30
0.0
 11
257.4772357044474
 21
399.9597109692836
 31
0.0
  0
ARC
  5
603
330
18
100
AcDbEntity
  8
DIM
100
AcDbCircle
 10
255.3168458837332
 20
402.1597109692835
 30
0.0
 40
0.3
100
AcDbArc
 50
80.30586052823091
 51
90.0
  0
LINE
  5
604
330
18
100
AcDbEntity
  8
HIDEN
100
AcDbLine
 10
268.3636452935962
 20
400.5787097653875
 30
0.0
 11
267.4954044052616
 21
395.6546710003265
 31
0.0
  0
LINE
  5
605
330
18
100
AcDbEntity
  8
HIDEN
100
AcDbLine
 10
269.1376445025259
 20
395.3650997623775
 30
0.0
 11
267.4954044052616
 21
395.6546710003265
 31
0.0
  0
LINE
  5
606
330
18
100
AcDbEntity
  8
HIDEN
100
AcDbLine
 10
271.3180685526328
 20
400.0577652323868
 30
0.0
 11
270.9186777439989
 21
397.7927074004586
 31
0.0
  0
LINE
  5
607
330
18
100
AcDbEntity
  8
DIM
100
AcDbLine
 10
406.5422857991762
 20
337.8597109692834
 30
0.0
 11
406.5422857991762
 21
346.4597109692835
 31
0.0
  0
LINE
  5
608
330
18
100
AcDbEntity
  8
HIDEN
100
AcDbLine
 10
405.0422857991763
 20
346.4597109692835
 30
0.0
 11
405.0422857991763
 21
373.9400112279866
 31
0.0
  0
LINE
  5
609
330
18
100
AcDbEntity
  8
DIM
100
AcDbLine
 10
407.5422857991762
 20
346.4597109692835
 30
0.0
 11
407.5422857991762
 21
373.5204614123979
 31
0.0
  0
LINE
  5
60A
330
18
100
AcDbEntity
  8
DIM
100
AcDbLine
 10
405.0632303321771
 20
376.4748846714346
 30
0.0
 11
427.2314904109838
 21
376.4748846714346
 31
0.0
  0
ARC
  5
60B
330
18
100
AcDbEntity
  8
DIM
100
AcDbCircle
 10
404.5422857991763
 20
373.5204614123979
 30
0.0
 40
3.0
100
AcDbArc
 50
0.0
 51
79.99999999999999
  0
LINE
  5
6D3
330
18
100
AcDbEntity
  8
BORDER
  6
CONTINUOUS
 62
     6
100
AcDbLine
 10
422.7728394293567
 20
35.18553129206431
 30
0.0
 11
6.350000000000022
 21
35.18553129206422
 31
0.0
  0
TEXT
  5
6D4
330
18
100
AcDbEntity
  8
TEXT
100
AcDbText
 10
952.6600634089708
 20
2.596971319955972
 30
0.0
 40
4.571999999999999
  1
SE-107 & 109 MASTER
 41
0.9612733557264773
 72
     5
 11
1030.304034897709
 21
2.596971319955972
 31
0.0
100
AcDbText
  0
TEXT
  5
6D5
330
18
100
AcDbEntity
  8
TEXT
100
AcDbText
 10
939.3063766945806
 20
31.56046671207108
 30
0.0
 40
5.588
  1
Eng. Drawing E size Master
  7
DIM
100
AcDbText
  0
LINE
  5
6D6
330
18
100
AcDbEntity
  8
BORDER
 62
     6
100
AcDbLine
 10
1073.004212477133
 20
75.90656867564836
 30
0.0
 11
912.9842124771336
 21
75.90656867564836
 31
0.0
  0
LINE
  5
6D7
330
18
100
AcDbEntity
  8
BORDER
 62
     6
100
AcDbLine
 10
1073.004212477133
 20
40.57620048279042
 30
0.0
 11
912.9842124771336
 21
40.57620048279042
 31
0.0
  0
LINE
  5
6D8
330
18
100
AcDbEntity
  8
BORDER
 62
     6
100
AcDbLine
 10
1073.004212477133
 20
27.24120048279041
 30
0.0
 11
912.9842124771336
 21
27.24120048279041
 31
0.0
  0
LINE
  5
6D9
330
18
100
AcDbEntity
  8
BORDER
 62
     6
100
AcDbLine
 10
1073.004212477133
 20
13.90620048279042
 30
0.0
 11
912.9842124771336
 21
13.90620048279042
 31
0.0
  0
TEXT
  5
6DA
330
18
100
AcDbEntity
  8
TEXT
100
AcDbText
 10
922.8628926962713
 20
2.902311702511522
 30
0.0
 40
5.334
  1
1:1
100
AcDbText
  0
LINE
  5
6DB
330
18
100
AcDbEntity
  8
BORDER
 62
     6
100
AcDbLine
 10
945.8420601825894
 20
27.24120048279041
 30
0.0
 11
945.8420601825894
 21
0.5712004827904157
 31
0.0
  0
LINE
  5
6DC
330
18
100
AcDbEntity
  8
BORDER
 62
     6
100
AcDbLine
 10
912.9842124771336
 20
75.90656867564836
 30
0.0
 11
912.9842124771336
 21
0.5712004827904157
 31
0.0
  0
TEXT
  5
6DD
330
18
100
AcDbEntity
  8
TEXT
100
AcDbText
 10
915.0615904788555
 20
9.380513678830116
 30
0.0
 40
3.200399999999999
  1
Scale
100
AcDbText
  0
TEXT
  5
6DE
330
18
100
AcDbEntity
  8
TEXT
100
AcDbText
 10
915.0615904788555
 20
22.63090311645685
 30
0.0
 40
3.200399999999999
  1
Date
100
AcDbText
  0
TEXT
  5
6DF
330
18
100
AcDbEntity
  8
TEXT
100
AcDbText
 10
915.554159358224
 20
34.99983268749721
 30
0.0
 40
4.267199999999998
  1
Title
100
AcDbText
  0
TEXT
  5
6E0
330
18
100
AcDbEntity
  8
TEXT
100
AcDbText
 10
947.8753076566734
 20
9.703635412757261
 30
0.0
 40
3.200399999999999
  1
EAI #
100
AcDbText
  0
TEXT
  5
6E1
330
18
100
AcDbEntity
  8
TEXT
100
AcDbText
 10
1047.980269587972
 20
2.884664871007514
 30
0.0
 40
5.334
  1
1of1
100
AcDbText
  0
LINE
  5
6E2
330
18
100
AcDbEntity
  8
BORDER
 62
     6
100
AcDbLine
 10
1032.357676283136
 20
27.24120048279041
 30
0.0
 11
1032.357676283136
 21
0.5712004827904157
 31
0.0
  0
TEXT
  5
6E3
330
18
100
AcDbEntity
  8
TEXT
100
AcDbText
 10
1040.05224210163
 20
16.32353378768299
 30
0.0
 40
4.8006
  1
R.F.K.
 51
25.0
  7
TITLE
100
AcDbText
  0
TEXT
  5
6E4
330
18
100
AcDbEntity
  8
TEXT
100
AcDbText
 10
1033.765963294935
 20
22.95402485038382
 30
0.0
 40
3.200399999999999
  1
Drn. by
100
AcDbText
  0
TEXT
  5
6E5
330
18
100
AcDbEntity
  8
TEXT
100
AcDbText
 10
1033.765963294935
 20
9.758891505186658
 30
0.0
 40
3.200399999999999
  1
Sheet
100
AcDbText
  0
LINE
  5
6E6
330
18
100
AcDbEntity
  8
BORDER
  6
CONTINUOUS
 62
     6
100
AcDbLine
 10
422.7728394293567
 20
35.18553129206431
 30
0.0
 11
422.7728394293567
 21
0.0
 31
0.0
  0
TEXT
  5
6E7
330
18
100
AcDbEntity
  8
TEXT
  6
PHANTOM
100
AcDbText
 10
916.8370604419301
 20
16.34816777783832
 30
0.0
 40
3.555999999999999
  1
5/15/00
  7
DIM
100
AcDbText
  0
INSERT
  5
6E8
330
18
100
AcDbEntity
  8
LOGO
  6
PHANTOM
100
AcDbBlockReference
  2
LOGO
 10
776.7704817244064
 20
-57.06681416111083
 30
0.0
 41
30.48
 42
30.48
 43
30.48
  0
TEXT
  5
6E9
330
18
100
AcDbEntity
  8
LOGO
  6
PHANTOM
100
AcDbText
 10
959.7122079880184
 20
64.64404068528977
 30
0.0
 40
5.588
  1
Enclosures of America
 51
25.0
  7
TITLE
100
AcDbText
  0
TEXT
  5
6EA
330
18
100
AcDbEntity
  8
LOGO
  6
PHANTOM
100
AcDbText
 10
959.7122079880184
 20
54.0136215364971
 30
0.0
 40
5.588
  1
International, LTD
 51
25.0
  7
TITLE
100
AcDbText
  0
TEXT
  5
6EB
330
18
100
AcDbEntity
  8
LOGO
  6
PHANTOM
100
AcDbText
 10
918.2846388950895
 20
43.47425059477684
 30
0.0
 40
3.809999999999999
  1
28045 Ashley Circle #106 Libertyville, Illinois, USA  60048
 41
0.848318659086399
  7
DIM
 72
     5
 11
1066.653148601703
 21
43.47425059477684
 31
0.0
100
AcDbText
  0
TEXT
  5
6EC
330
18
100
AcDbEntity
  8
TEXT
100
AcDbText
 10
14.11703928973108
 20
20.30333207909933
 30
0.0
 40
3.840479999999999
  1
THIS DRAWING IS THE PROPERTY OF AND MAY EMBODY PROPRIETARY INFORMATION OWNED BY ENCLOSURES OF AMERICA  
100
AcDbText
  0
TEXT
  5
6ED
330
18
100
AcDbEntity
  8
TEXT
100
AcDbText
 10
14.11703928973108
 20
14.08541207909934
 30
0.0
 40
3.840479999999999
  1
IT IS PROVIDED UNDER A CONFIDENTIAL RELATIONSHIP FOR A SPECIFIC PURPOSE. THE RECIPIENT AGREES TO USE IT ONLY 
100
AcDbText
  0
TEXT
  5
6EE
330
18
100
AcDbEntity
  8
TEXT
100
AcDbText
 10
14.11703928973108
 20
7.867492079099335
 30
0.0
 40
3.840479999999999
  1
FOR SUCH PURPOSE AND RETURN IT TO ENCLOSURES OF AMERICA   UPON REQUEST.
100
AcDbText
  0
TEXT
  5
6EF
330
18
100
AcDbEntity
  8
TEXT
100
AcDbText
 10
222.5648860364553
 20
10.26224447479747
 30
0.0
 40
2.743199999999999
  1
TM
100
AcDbText
  0
TEXT
  5
6F0
330
18
100
AcDbEntity
  8
TEXT
100
AcDbText
 10
395.8043657712208
 20
23.05273252764675
 30
0.0
 40
2.743199999999999
  1
TM
100
AcDbText
  0
LINE
  5
6F1
330
18
100
AcDbEntity
  8
BORDER
  6
CONTINUOUS
 62
     6
100
AcDbLine
 10
0.0
 20
-6.349999999999999
 30
0.0
 11
0.0
 21
850.9
 31
0.0
  0
LINE
  5
6F2
330
18
100
AcDbEntity
  8
BORDER
  6
CONTINUOUS
 62
     6
100
AcDbLine
 10
0.0
 20
850.9
 30
0.0
 11
1079.5
 21
850.9
 31
0.0
  0
LINE
  5
6F3
330
18
100
AcDbEntity
  8
BORDER
  6
CONTINUOUS
 62
     6
100
AcDbLine
 10
1073.149999999999
 20
844.5499999999999
 30
0.0
 11
1073.149999999999
 21
0.0
 31
0.0
  0
LINE
  5
6F4
330
18
100
AcDbEntity
  8
BORDER
  6
CONTINUOUS
 62
     6
100
AcDbLine
 10
1073.149999999999
 20
0.0
 30
0.0
 11
6.349999999999999
 21
0.0
 31
0.0
  0
LINE
  5
6F5
330
18
100
AcDbEntity
  8
BORDER
  6
CONTINUOUS
 62
     6
100
AcDbLine
 10
6.349999999999999
 20
844.5499999999999
 30
0.0
 11
1073.149999999999
 21
844.5499999999999
 31
0.0
  0
LINE
  5
6F6
330
18
100
AcDbEntity
  8
BORDER
  6
CONTINUOUS
 62
     6
100
AcDbLine
 10
6.349999999999999
 20
0.0
 30
0.0
 11
6.349999999999999
 21
844.5499999999999
 31
0.0
  0
LINE
  5
6F7
330
18
100
AcDbEntity
  8
BORDER
  6
CONTINUOUS
 62
     6
100
AcDbLine
 10
1079.5
 20
850.9
 30
0.0
 11
1079.5
 21
-6.349999999999999
 31
0.0
  0
LINE
  5
6F8
330
18
100
AcDbEntity
  8
BORDER
  6
CONTINUOUS
 62
     6
100
AcDbLine
 10
1079.5
 20
-6.349999999999999
 30
0.0
 11
0.0
 21
-6.349999999999999
 31
0.0
  0
TEXT
  5
6F9
330
18
100
AcDbEntity
  8
LOGO
  6
CONTINUOUS
100
AcDbText
 10
421.1531853559567
 20
826.7777751421583
 30
0.0
 40
11.999976
  1
Enclosures of America Intl. LTD.
 41
1.225175732547893
 51
18.0
  7
LOGO2
 72
     5
 11
722.678311689277
 21
826.7777751421583
 31
0.0
100
AcDbText
  0
HATCH
  5
6FA
330
18
100
AcDbEntity
  8
LOGO
100
AcDbHatch
 10
0.0
 20
0.0
 30
0.0
210
0.0
220
0.0
230
1.0
  2
SOLID
 70
     1
 71
     1
 91
        6
 92
        7
 72
     0
 73
     1
 93
        4
 10
411.8505106043121
 20
813.4178013479036
 10
411.8505106043121
 20
841.9927441979037
 10
368.9880963293119
 20
841.9927441979037
 10
368.9880963293119
 20
813.4178013479036
 97
        1
330
6FD
 92
       22
 72
     1
 73
     1
 93
        8
 10
371.9217904619122
 20
814.6369989095038
 42
-0.4142135623730957
 10
370.2072938909121
 20
816.3514954805039
 42
0.0
 10
370.2072938909121
 20
839.0590500653035
 42
-0.4142135623730953
 10
371.9217904619122
 20
840.7735466363035
 42
0.0
 10
408.9168164717119
 20
840.7735466363035
 42
-0.4142135623730946
 10
410.6313130427119
 20
839.0590500653035
 42
0.0
 10
410.6313130427119
 20
816.3514954805039
 42
-0.4142135623730951
 10
408.9168164717119
 20
814.6369989095038
 42
0.0
 97
        1
330
6FE
 92
        6
 72
     1
 73
     1
 93
        8
 10
372.6456890141126
 20
815.856196471104
 42
-0.4142135623731095
 10
371.4264914525124
 20
817.0753940327042
 42
0.0
 10
371.4264914525124
 20
838.3351515131041
 42
-0.4142135623731085
 10
372.6456890141126
 20
839.5543490747044
 42
0.0
 10
408.1929179195121
 20
839.5543490747044
 42
-0.4142135623730668
 10
409.4121154811118
 20
838.3351515131048
 42
0.0
 10
409.4121154811128
 20
817.0753940327044
 42
-0.4142135623731365
 10
408.1929179195126
 20
815.856196471104
 42
0.0
 97
        1
330
6FC
 92
        6
 72
     0
 73
     1
 93
       25
 10
394.9221622376236
 20
817.5187055900012
 10
394.9221622376237
 20
821.8767570205979
 10
386.6752424749589
 20
821.8767570205978
 10
389.4356958248691
 20
825.7553958623869
 10
394.9221622376237
 20
825.7553958623869
 10
394.9221622376237
 20
835.7640262620687
 10
381.9368448044071
 20
817.5187055900012
 10
372.8681405655756
 20
817.5187055900012
 10
372.8681405655756
 20
837.7523143199555
 10
390.2579099900623
 20
837.7523143199555
 10
386.732833628285
 20
832.7993242259559
 10
376.2590337837757
 20
832.7993242259559
 10
376.2590337837757
 20
830.1120050019772
 10
384.8202504627213
 20
830.1120050019772
 10
381.2951741009431
 20
825.1590149079776
 10
376.2590337837757
 20
825.1590149079776
 10
376.2590337837757
 20
822.4716956840008
 10
381.2531530485914
 20
822.4716956840008
 10
392.1284721032746
 20
837.7523143199553
 10
399.8751523316231
 20
837.7523143199555
 10
399.8751523316231
 20
821.8767570205979
 10
403.053238170373
 20
821.8767570205976
 10
403.053238170373
 20
831.4852670785246
 10
408.0062282643726
 20
831.4852670785244
 10
408.0062282643726
 20
817.5187055900012
 97
       25
330
714
330
711
330
713
330
712
330
70B
330
70E
330
701
330
705
330
702
330
719
330
703
330
707
330
704
330
708
330
700
330
706
330
6FF
330
70D
330
718
330
70A
330
715
330
709
330
717
330
70C
330
70F
 92
        6
 72
     0
 73
     1
 93
        4
 10
402.9865025178356
 20
833.4549109078524
 10
402.9865025178356
 20
837.9313729950533
 10
407.8269530921575
 20
837.9313729950533
 10
407.8269530921575
 20
833.4549109078521
 97
        1
330
716
 92
      136
 93
        4
 72
     1
 10
402.5942788330517
 20
817.6634406350183
 11
407.5472689270517
 21
817.6634406350183
 72
     1
 10
407.5472689270517
 20
817.6634406350183
 11
407.5472689270517
 21
821.0924337770183
 72
     1
 10
407.5472689270517
 20
821.0924337770183
 11
402.5942788330517
 21
821.0924337770183
 72
     1
 10
402.5942788330517
 20
821.0924337770183
 11
402.5942788330517
 21
817.6634406350183
 97
        1
330
710
 75
     0
 76
     1
 47
0.004699707028351
 98
        5
 10
402.0901221729365
 20
813.9375360799149
 10
402.0901221729365
 20
813.9375360799149
 10
402.0901221729365
 20
813.9375360799149
 10
402.0901221729365
 20
813.9375360799149
 10
402.0901221729365
 20
813.9375360799149
  0
HATCH
  5
6FB
330
18
100
AcDbEntity
  8
LOGO
100
AcDbHatch
 10
0.0
 20
0.0
 30
0.0
210
0.0
220
0.0
230
1.0
  2
SOLID
 70
     1
 71
     1
 91
        4
 92
        7
 72
     1
 73
     1
 93
        8
 10
372.6456890141126
 20
839.5543490747044
 42
0.4142135623731085
 10
371.4264914525124
 20
838.3351515131041
 42
0.0
 10
371.4264914525124
 20
817.0753940327042
 42
0.4142135623731095
 10
372.6456890141126
 20
815.856196471104
 42
0.0
 10
408.1929179195126
 20
815.856196471104
 42
0.4142135623731365
 10
409.4121154811128
 20
817.0753940327044
 42
0.0
 10
409.4121154811118
 20
838.3351515131048
 42
0.4142135623730666
 10
408.1929179195121
 20
839.5543490747044
 42
0.0
 97
        1
330
6FC
 92
       22
 72
     0
 73
     1
 93
       25
 10
372.8681405655755
 20
837.7523143199553
 10
390.2579099900623
 20
837.7523143199553
 10
386.732833628285
 20
832.7993242259559
 10
376.2590337837757
 20
832.7993242259559
 10
376.2590337837757
 20
830.1120050019772
 10
384.8202504627213
 20
830.1120050019772
 10
381.2951741009431
 20
825.1590149079776
 10
376.2590337837757
 20
825.1590149079776
 10
376.2590337837757
 20
822.4716956840008
 10
381.2531530485914
 20
822.4716956840008
 10
392.1284721032746
 20
837.7523143199553
 10
399.8751523316231
 20
837.7523143199555
 10
399.8751523316231
 20
821.8767570205979
 10
403.053238170373
 20
821.8767570205976
 10
403.053238170373
 20
831.4852670785246
 10
408.0062282643726
 20
831.4852670785244
 10
408.0062282643726
 20
817.5187055900012
 10
394.9221622376237
 20
817.5187055900014
 10
394.9221622376236
 20
821.8767570205979
 10
386.6752424749589
 20
821.8767570205979
 10
389.4356958248691
 20
825.7553958623867
 10
394.9221622376237
 20
825.7553958623869
 10
394.9221622376237
 20
835.7640262620686
 10
381.9368448044071
 20
817.5187055900012
 10
372.8681405655756
 20
817.5187055900012
 97
       25
330
719
330
703
330
707
330
704
330
708
330
700
330
706
330
6FF
330
70D
330
718
330
70A
330
715
330
709
330
717
330
70C
330
70F
330
714
330
711
330
713
330
712
330
70B
330
70E
330
701
330
705
330
702
 92
       22
 72
     0
 73
     1
 93
        4
 10
402.9865025178375
 20
837.9313729950533
 10
407.8269530921574
 20
837.9313729950535
 10
407.8269530921574
 20
833.4549109078521
 10
402.9865025178357
 20
833.4549109078521
 97
        1
330
716
 92
      136
 93
        4
 72
     1
 10
402.5942788330517
 20
817.6634406350183
 11
407.5472689270517
 21
817.6634406350183
 72
     1
 10
407.5472689270517
 20
817.6634406350183
 11
407.5472689270517
 21
821.0924337770183
 72
     1
 10
407.5472689270517
 20
821.0924337770183
 11
402.5942788330517
 21
821.0924337770183
 72
     1
 10
402.5942788330517
 20
821.0924337770183
 11
402.5942788330517
 21
817.6634406350183
 97
        1
330
710
 75
     0
 76
     1
 47
0.004699707028351
 98
       10
 10
370.1790010254841
 20
840.7963086031216
 10
370.1790010254841
 20
840.7963086031216
 10
370.1790010254841
 20
840.7963086031216
 10
370.1790010254841
 20
840.7963086031216
 10
370.1790010254841
 20
840.7963086031216
 10
375.378003438844
 20
835.06643658861
 10
381.4733861971041
 20
835.7826704906269
 10
388.6444244724782
 20
838.4685482219715
 10
388.6444244724782
 20
838.4685482219715
 10
388.6444244724782
 20
838.4685482219715
  0
LWPOLYLINE
  5
6FC
102
{ACAD_REACTORS
330
6FB
330
6FA
102
}
330
18
100
AcDbEntity
  8
LOGO
100
AcDbPolyline
 90
        8
 70
     1
 43
0.0
 10
372.6456890141125
 20
815.856196471104
 10
408.1929179195126
 20
815.856196471104
 42
0.4142135623730956
 10
409.4121154811128
 20
817.0753940327042
 10
409.4121154811118
 20
838.3351515131041
 42
0.414213562373094
 10
408.1929179195126
 20
839.5543490747044
 10
372.6456890141125
 20
839.5543490747044
 42
0.414213562373095
 10
371.4264914525124
 20
838.3351515131041
 10
371.4264914525124
 20
817.0753940327042
 42
0.4142135623730959
  0
LWPOLYLINE
  5
6FD
102
{ACAD_REACTORS
330
6FA
102
}
330
18
100
AcDbEntity
  8
LOGO
100
AcDbPolyline
 90
        4
 70
     1
 43
0.0
 10
368.9880963293119
 20
813.4178013479036
 10
411.8505106043121
 20
813.4178013479036
 10
411.8505106043121
 20
841.9927441979037
 10
368.9880963293119
 20
841.9927441979037
  0
LWPOLYLINE
  5
6FE
102
{ACAD_REACTORS
330
6FA
102
}
330
18
100
AcDbEntity
  8
LOGO
100
AcDbPolyline
 90
        8
 70
     1
 43
0.0
 10
371.9217904619122
 20
814.6369989095038
 10
408.9168164717119
 20
814.6369989095038
 42
0.4142135623730951
 10
410.6313130427119
 20
816.3514954805039
 10
410.6313130427119
 20
839.0590500653035
 42
0.4142135623730946
 10
408.9168164717119
 20
840.7735466363035
 10
371.9217904619122
 20
840.7735466363035
 42
0.4142135623730953
 10
370.2072938909121
 20
839.0590500653035
 10
370.2072938909121
 20
816.3514954805039
 42
0.4142135623730956
  0
LINE
  5
6FF
102
{ACAD_REACTORS
330
6FA
330
6FB
102
}
330
18
100
AcDbEntity
  8
LOGO
100
AcDbLine
 10
376.2590337837757
 20
822.4716956840008
 30
0.0
 11
381.2531530485914
 21
822.4716956840008
 31
0.0
  0
LINE
  5
700
102
{ACAD_REACTORS
330
6FA
330
6FB
102
}
330
18
100
AcDbEntity
  8
LOGO
100
AcDbLine
 10
376.2590337837757
 20
825.1590149079776
 30
0.0
 11
381.2951741009431
 21
825.1590149079776
 31
0.0
  0
LINE
  5
701
102
{ACAD_REACTORS
330
6FA
330
6FB
102
}
330
18
100
AcDbEntity
  8
LOGO
100
AcDbLine
 10
372.8681405655756
 20
817.5187055900012
 30
0.0
 11
381.9368448044071
 21
817.5187055900012
 31
0.0
  0
LINE
  5
702
102
{ACAD_REACTORS
330
6FB
330
6FA
102
}
330
18
100
AcDbEntity
  8
LOGO
100
AcDbLine
 10
390.2579099900623
 20
837.7523143199555
 30
0.0
 11
372.8681405655756
 21
837.7523143199555
 31
0.0
  0
LINE
  5
703
102
{ACAD_REACTORS
330
6FA
330
6FB
102
}
330
18
100
AcDbEntity
  8
LOGO
100
AcDbLine
 10
386.7328336282851
 20
832.7993242259559
 30
0.0
 11
376.2590337837757
 21
832.7993242259559
 31
0.0
  0
LINE
  5
704
102
{ACAD_REACTORS
330
6FA
330
6FB
102
}
330
18
100
AcDbEntity
  8
LOGO
100
AcDbLine
 10
376.2590337837757
 20
830.1120050019772
 30
0.0
 11
384.8202504627213
 21
830.1120050019772
 31
0.0
  0
LINE
  5
705
102
{ACAD_REACTORS
330
6FB
330
6FA
102
}
330
18
100
AcDbEntity
  8
LOGO
100
AcDbLine
 10
372.8681405655756
 20
837.7523143199555
 30
0.0
 11
372.8681405655756
 21
817.5187055900012
 31
0.0
  0
LINE
  5
706
102
{ACAD_REACTORS
330
6FA
330
6FB
102
}
330
18
100
AcDbEntity
  8
LOGO
100
AcDbLine
 10
376.2590337837757
 20
825.1590149079776
 30
0.0
 11
376.2590337837757
 21
822.4716956840008
 31
0.0
  0
LINE
  5
707
102
{ACAD_REACTORS
330
6FA
330
6FB
102
}
330
18
100
AcDbEntity
  8
LOGO
100
AcDbLine
 10
376.2590337837757
 20
832.7993242259559
 30
0.0
 11
376.2590337837757
 21
830.1120050019772
 31
0.0
  0
LINE
  5
708
102
{ACAD_REACTORS
330
6FA
330
6FB
102
}
330
18
100
AcDbEntity
  8
LOGO
100
AcDbLine
 10
384.8202504627213
 20
830.1120050019772
 30
0.0
 11
381.2951741009431
 21
825.1590149079776
 31
0.0
  0
LINE
  5
709
102
{ACAD_REACTORS
330
6FA
330
6FB
102
}
330
18
100
AcDbEntity
  8
LOGO
100
AcDbLine
 10
403.053238170373
 20
821.8767570205978
 30
0.0
 11
403.053238170373
 21
831.4852670785246
 31
0.0
  0
LINE
  5
70A
102
{ACAD_REACTORS
330
6FB
330
6FA
102
}
330
18
100
AcDbEntity
  8
LOGO
100
AcDbLine
 10
399.8751523316231
 20
837.7523143199555
 30
0.0
 11
399.8751523316231
 21
821.8767570205978
 31
0.0
  0
LINE
  5
70B
102
{ACAD_REACTORS
330
6FB
330
6FA
102
}
330
18
100
AcDbEntity
  8
LOGO
100
AcDbLine
 10
394.9221622376236
 20
835.7640262620686
 30
0.0
 11
394.9221622376236
 21
825.7553958623869
 31
0.0
  0
LINE
  5
70C
102
{ACAD_REACTORS
330
6FA
330
6FB
102
}
330
18
100
AcDbEntity
  8
LOGO
100
AcDbLine
 10
408.0062282643726
 20
817.5187055900012
 30
0.0
 11
408.0062282643726
 21
831.4852670785246
 31
0.0
  0
LINE
  5
70D
102
{ACAD_REACTORS
330
6FB
330
6FA
102
}
330
18
100
AcDbEntity
  8
LOGO
100
AcDbLine
 10
392.1284721032746
 20
837.7523143199555
 30
0.0
 11
381.2531530485914
 21
822.4716956840008
 31
0.0
  0
LINE
  5
70E
102
{ACAD_REACTORS
330
6FB
330
6FA
102
}
330
18
100
AcDbEntity
  8
LOGO
100
AcDbLine
 10
394.9221622376236
 20
835.7640262620686
 30
0.0
 11
381.9368448044071
 21
817.5187055900012
 31
0.0
  0
LINE
  5
70F
102
{ACAD_REACTORS
330
6FA
330
6FB
102
}
330
18
100
AcDbEntity
  8
LOGO
100
AcDbLine
 10
394.9221622376236
 20
817.5187055900012
 30
0.0
 11
408.0062282643726
 21
817.5187055900012
 31
0.0
  0
TEXT
  5
710
102
{ACAD_REACTORS
330
6FA
330
6FB
102
}
330
18
100
AcDbEntity
  8
LOGO
100
AcDbText
 10
403.1657776900517
 20
818.2349394920183
 30
0.0
 40
2.285995427999999
  1
TM
100
AcDbText
  0
LINE
  5
711
102
{ACAD_REACTORS
330
6FA
330
6FB
102
}
330
18
100
AcDbEntity
  8
LOGO
100
AcDbLine
 10
386.6752424749599
 20
821.8767570205978
 30
0.0
 11
394.9221622376236
 21
821.8767570205978
 31
0.0
  0
LINE
  5
712
102
{ACAD_REACTORS
330
6FA
330
6FB
102
}
330
18
100
AcDbEntity
  8
LOGO
100
AcDbLine
 10
389.4356958248692
 20
825.7553958623869
 30
0.0
 11
394.9221622376236
 21
825.7553958623869
 31
0.0
  0
LINE
  5
713
102
{ACAD_REACTORS
330
6FA
330
6FB
102
}
330
18
100
AcDbEntity
  8
LOGO
100
AcDbLine
 10
389.4356958248692
 20
825.7553958623869
 30
0.0
 11
386.6752424749589
 21
821.8767570205978
 31
0.0
  0
LINE
  5
714
102
{ACAD_REACTORS
330
6FA
330
6FB
102
}
330
18
100
AcDbEntity
  8
LOGO
100
AcDbLine
 10
394.9221622376236
 20
821.8767570205978
 30
0.0
 11
394.9221622376236
 21
817.5187055900012
 31
0.0
  0
LINE
  5
715
102
{ACAD_REACTORS
330
6FA
330
6FB
102
}
330
18
100
AcDbEntity
  8
LOGO
100
AcDbLine
 10
399.8751523316231
 20
821.8767570205978
 30
0.0
 11
403.053238170373
 21
821.8767570205978
 31
0.0
  0
LWPOLYLINE
  5
716
102
{ACAD_REACTORS
330
6FB
330
6FA
102
}
330
18
100
AcDbEntity
  8
LOGO
100
AcDbPolyline
 90
        4
 70
     1
 43
0.0
 10
402.9865025178356
 20
833.4549109078521
 10
407.8269530921574
 20
833.4549109078521
 10
407.8269530921574
 20
837.9313729950533
 10
402.9865025178356
 20
837.9313729950533
  0
LINE
  5
717
102
{ACAD_REACTORS
330
6FA
330
6FB
102
}
330
18
100
AcDbEntity
  8
LOGO
100
AcDbLine
 10
403.053238170373
 20
831.4852670785246
 30
0.0
 11
408.0062282643726
 21
831.4852670785246
 31
0.0
  0
LINE
  5
718
102
{ACAD_REACTORS
330
6FB
330
6FA
102
}
330
18
100
AcDbEntity
  8
LOGO
100
AcDbLine
 10
392.1284721032746
 20
837.7523143199555
 30
0.0
 11
399.8751523316231
 21
837.7523143199555
 31
0.0
  0
LINE
  5
719
102
{ACAD_REACTORS
330
6FB
330
6FA
102
}
330
18
100
AcDbEntity
  8
LOGO
100
AcDbLine
 10
390.2579099900623
 20
837.7523143199555
 30
0.0
 11
386.7328336282851
 21
832.7993242259559
 31
0.0
  0
TEXT
  5
71A
330
18
100
AcDbEntity
  8
BORDER
  6
CONTINUOUS
100
AcDbText
 10
423.4719530856613
 20
815.6050790060136
 30
0.0
 40
4.499991
  1
Tel: 847-918-9800       www.eai-enclosures.com       Fax: 847-918-9807
100
AcDbText
  0
LINE
  5
71B
330
18
100
AcDbEntity
  8
BORDER
100
AcDbLine
 10
355.0493385566305
 20
809.6996675427515
 30
0.0
 11
736.0485765566303
 21
809.6996675427515
 31
0.0
  0
LINE
  5
71C
330
18
100
AcDbEntity
  8
BORDER
  6
CONTINUOUS
100
AcDbLine
 10
736.0485765566303
 20
809.6996675427515
 30
0.0
 11
736.0485765566303
 21
844.5499999999999
 31
0.0
  0
LINE
  5
71D
330
18
100
AcDbEntity
  8
BORDER
  6
CONTINUOUS
100
AcDbLine
 10
355.0493385566305
 20
809.6996675427515
 30
0.0
 11
355.0493385566305
 21
844.5499999999999
 31
0.0
  0
TEXT
  5
71E
330
18
100
AcDbEntity
  8
CALLOUTS
100
AcDbText
 10
181.0240638950977
 20
477.5418441496249
 30
0.0
 40
5.0
  1
%%UCOVER INSIDE
100
AcDbText
  0
TEXT
  5
71F
330
18
100
AcDbEntity
  8
CALLOUTS
100
AcDbText
 10
504.2933970362168
 20
470.9990492155766
 30
0.0
 40
5.0
  1
%%UCOVER OUTSIDE
100
AcDbText
  0
TEXT
  5
720
330
18
100
AcDbEntity
  8
CALLOUTS
100
AcDbText
 10
845.4427159161888
 20
460.0667608865226
 30
0.0
 40
5.0
  1
%%UBOTTOM INSIDE
100
AcDbText
  0
TEXT
  5
721
330
18
100
AcDbEntity
  8
CALLOUTS
100
AcDbText
 10
278.3144132328579
 20
279.0630137964603
 30
0.0
 40
5.0
  1
%%USIDE VIEW
100
AcDbText
  0
LINE
  5
722
330
18
100
AcDbEntity
  8
DIM
100
AcDbLine
 10
189.5422857991763
 20
368.6597109692834
 30
0.0
 11
193.1619564541249
 21
368.6597109692834
 31
0.0
  0
LINE
  5
723
330
18
100
AcDbEntity
  8
HIDEN
100
AcDbLine
 10
193.1619564541248
 20
346.4597109692835
 30
0.0
 11
193.1619564541249
 21
368.6597109692834
 31
0.0
  0
INSERT
  5
7B0
330
18
100
AcDbEntity
  8
CALLOUTS
100
AcDbBlockReference
  2
A$C28B57436
 10
604.0590091350217
 20
222.9600396986966
 30
0.0
  0
TEXT
  5
7B1
330
18
100
AcDbEntity
  8
CALLOUTS
100
AcDbText
 10
265.0133941218632
 20
135.1121047590338
 30
0.0
 40
5.0
  1
%%UBACK VIEW 
100
AcDbText
  0
TEXT
  5
7B2
330
18
100
AcDbEntity
  8
CALLOUTS
100
AcDbText
 10
674.3321429387601
 20
209.2132840732369
 30
0.0
 40
5.0
  1
%%UALUMINUM FRONT PANEL
100
AcDbText
  0
LEADER
  5
7E9
330
18
100
AcDbEntity
  8
TEXT
100
AcDbLeader
  3
STANDARD
 73
     0
 40
5.0
 41
51.66666666666667
 76
     3
 10
188.6805808096942
 20
363.3586681037822
 30
0.0
 10
148.8731555292415
 20
398.0738828963854
 30
0.0
 10
140.8930792796818
 20
398.4431799876992
 30
0.0
340
7EA
1001
ACAD
1000
DSTYLE
1002
{
1070
     3
1000
mm
1070
     4
1000
"
1070
     5
1000

1070
    41
1040
5.0
1070
    42
1040
0.625
1070
    43
1040
3.75
1070
    44
1040
1.25
1070
    73
1070
     0
1070
    74
1070
     0
1070
    77
1070
     1
1070
    78
1070
     8
1070
   140
1040
5.0
1070
   141
1040
2.5
1070
   143
1040
0.0394
1070
   147
1040
0.625
1070
   170
1070
     1
1070
   171
1070
     4
1070
   172
1070
     1
1070
   271
1070
     2
1070
   273
1070
     8
1070
   274
1070
     4
1002
}
  0
MTEXT
  5
7EA
102
{ACAD_REACTORS
330
7E9
102
}
330
18
100
AcDbEntity
  8
TEXT
100
AcDbMText
 10
140.2680792796818
 20
401.5681799876992
 30
0.0
 40
5.0
 41
0.0
 71
     6
 72
     1
  1
\A1;Insert Area
1001
ACAD
1000
MTEXTBEGIN
1070
    73
1070
     1
1070
    44
1040
1.0
1070
    74
1070
     0
1000
MTEXTEND
  0
INSERT
  5
840
330
18
100
AcDbEntity
  8
CALLOUTS
100
AcDbBlockReference
  2
A$C7E4B782B
 10
173.9333241978229
 20
147.6509525054102
 30
0.0
  0
ENDSEC
  0
SECTION
  2
OBJECTS
  0
DICTIONARY
  5
C
330
0
100
AcDbDictionary
  3
ACAD_GROUP
350
D
  3
ACAD_MLINESTYLE
350
1B
  3
ACAD_PLOTSTYLENAME
350
86F
  3
ACAD_LAYOUT
350
871
  3
ACAD_PLOTSETTINGS
350
872
  3
ACDBHEADERROUNDTRIPXREC
350
87C
  0
DICTIONARY
  5
89E
330
18
100
AcDbDictionary
280
     1
  3
ACAD_LAYOUTSELFREF
360
89F
  0
DICTIONARY
  5
89C
330
15
100
AcDbDictionary
280
     1
  3
ACAD_LAYOUTSELFREF
360
89D
  0
DICTIONARY
  5
D
102
{ACAD_REACTORS
330
C
102
}
330
C
100
AcDbDictionary
  0
DICTIONARY
  5
1B
102
{ACAD_REACTORS
330
C
102
}
330
C
100
AcDbDictionary
  3
STANDARD
350
1C
  0
ACDBDICTIONARYWDFLT
  5
86F
102
{ACAD_REACTORS
330
C
102
}
330
C
100
AcDbDictionary
281
     1
  3
Normal
350
870
100
AcDbDictionaryWithDefault
340
870
  0
DICTIONARY
  5
871
102
{ACAD_REACTORS
330
C
102
}
330
C
100
AcDbDictionary
  0
DICTIONARY
  5
872
102
{ACAD_REACTORS
330
C
102
}
330
C
100
AcDbDictionary
  0
DICTIONARY
  5
87C
102
{ACAD_REACTORS
330
C
102
}
330
C
100
AcDbDictionary
  3
TSTACKALIGN
350
87D
  3
TSTACKSIZE
350
87E
  3
HYPERLINKBASE
350
87F
  3
STYLESHEET
350
880
  3
LAYOUTDICT
350
881
  3
PLOTSETDICT
350
882
  3
PLOTSTYLNAMDICT
350
883
  3
LWETCUNION
350
884
  3
INSUNITS
350
885
  3
CEPSNTYPE
350
886
  3
FINGERPRINTGUID
350
887
  3
VERSIONGUID
350
888
  3
PSVPSCALE
350
889
  3
PUCSORTHOREF
350
88A
  3
PUCSORTHOVIEW
350
88B
  3
PUCSBASE
350
88C
  3
PUCSORGTOP
350
88D
  3
PUCSORGBOTTOM
350
88E
  3
PUCSORGLEFT
350
88F
  3
PUCSORGRIGHT
350
890
  3
PUCSORGFRONT
350
891
  3
PUCSORGBACK
350
892
  3
UCSORTHOREF
350
893
  3
UCSORTHOVIEW
350
894
  3
UCSBASE
350
895
  3
UCSORGTOP
350
896
  3
UCSORGBOTTOM
350
897
  3
UCSORGLEFT
350
898
  3
UCSORGRIGHT
350
899
  3
UCSORGFRONT
350
89A
  3
UCSORGBACK
350
89B
  0
XRECORD
  5
89F
102
{ACAD_REACTORS
330
89E
102
}
330
89E
100
AcDbXrecord
340
18
  0
XRECORD
  5
89D
102
{ACAD_REACTORS
330
89C
102
}
330
89C
100
AcDbXrecord
340
15
  0
MLINESTYLE
  5
1C
102
{ACAD_REACTORS
330
1B
102
}
330
1B
100
AcDbMlineStyle
  2
STANDARD
 70
     0
  3

 62
   256
 51
90.0
 52
90.0
 71
     2
 49
0.5
 62
   256
  6
BYLAYER
 49
-0.5
 62
   256
  6
BYLAYER
  0
ACDBPLACEHOLDER
  5
870
102
{ACAD_REACTORS
330
86F
102
}
330
86F
100
AcDbPlaceHolder
280
     0
  0
XRECORD
  5
87D
102
{ACAD_REACTORS
330
87C
102
}
330
87C
100
AcDbXrecord
 90
        1
  0
XRECORD
  5
87E
102
{ACAD_REACTORS
330
87C
102
}
330
87C
100
AcDbXrecord
 90
       70
  0
XRECORD
  5
87F
102
{ACAD_REACTORS
330
87C
102
}
330
87C
100
AcDbXrecord
  1

  0
XRECORD
  5
880
102
{ACAD_REACTORS
330
87C
102
}
330
87C
100
AcDbXrecord
  1

  0
XRECORD
  5
881
102
{ACAD_REACTORS
330
87C
102
}
330
87C
100
AcDbXrecord
340
871
  0
XRECORD
  5
882
102
{ACAD_REACTORS
330
87C
102
}
330
87C
100
AcDbXrecord
340
872
  0
XRECORD
  5
883
102
{ACAD_REACTORS
330
87C
102
}
330
87C
100
AcDbXrecord
340
86F
  0
XRECORD
  5
884
102
{ACAD_REACTORS
330
87C
102
}
330
87C
100
AcDbXrecord
 90
    14877
  0
XRECORD
  5
885
102
{ACAD_REACTORS
330
87C
102
}
330
87C
100
AcDbXrecord
 90
        0
  0
XRECORD
  5
886
102
{ACAD_REACTORS
330
87C
102
}
330
87C
100
AcDbXrecord
 90
        0
  0
XRECORD
  5
887
102
{ACAD_REACTORS
330
87C
102
}
330
87C
100
AcDbXrecord
  1
{18B73FD0-ADD9-11D5-9AF6-00805F4B58E1}
  0
XRECORD
  5
888
102
{ACAD_REACTORS
330
87C
102
}
330
87C
100
AcDbXrecord
  1
{18B73FD8-ADD9-11D5-9AF6-00805F4B58E1}
  0
XRECORD
  5
889
102
{ACAD_REACTORS
330
87C
102
}
330
87C
100
AcDbXrecord
 40
0.0
  0
XRECORD
  5
88A
102
{ACAD_REACTORS
330
87C
102
}
330
87C
100
AcDbXrecord
340
0
  0
XRECORD
  5
88B
102
{ACAD_REACTORS
330
87C
102
}
330
87C
100
AcDbXrecord
 70
     0
  0
XRECORD
  5
88C
102
{ACAD_REACTORS
330
87C
102
}
330
87C
100
AcDbXrecord
340
0
  0
XRECORD
  5
88D
102
{ACAD_REACTORS
330
87C
102
}
330
87C
100
AcDbXrecord
 10
0.0
 20
0.0
 30
0.0
  0
XRECORD
  5
88E
102
{ACAD_REACTORS
330
87C
102
}
330
87C
100
AcDbXrecord
 10
0.0
 20
0.0
 30
0.0
  0
XRECORD
  5
88F
102
{ACAD_REACTORS
330
87C
102
}
330
87C
100
AcDbXrecord
 10
0.0
 20
0.0
 30
0.0
  0
XRECORD
  5
890
102
{ACAD_REACTORS
330
87C
102
}
330
87C
100
AcDbXrecord
 10
0.0
 20
0.0
 30
0.0
  0
XRECORD
  5
891
102
{ACAD_REACTORS
330
87C
102
}
330
87C
100
AcDbXrecord
 10
0.0
 20
0.0
 30
0.0
  0
XRECORD
  5
892
102
{ACAD_REACTORS
330
87C
102
}
330
87C
100
AcDbXrecord
 10
0.0
 20
0.0
 30
0.0
  0
XRECORD
  5
893
102
{ACAD_REACTORS
330
87C
102
}
330
87C
100
AcDbXrecord
340
0
  0
XRECORD
  5
894
102
{ACAD_REACTORS
330
87C
102
}
330
87C
100
AcDbXrecord
 70
     0
  0
XRECORD
  5
895
102
{ACAD_REACTORS
330
87C
102
}
330
87C
100
AcDbXrecord
340
0
  0
XRECORD
  5
896
102
{ACAD_REACTORS
330
87C
102
}
330
87C
100
AcDbXrecord
 10
0.0
 20
0.0
 30
0.0
  0
XRECORD
  5
897
102
{ACAD_REACTORS
330
87C
102
}
330
87C
100
AcDbXrecord
 10
0.0
 20
0.0
 30
0.0
  0
XRECORD
  5
898
102
{ACAD_REACTORS
330
87C
102
}
330
87C
100
AcDbXrecord
 10
0.0
 20
0.0
 30
0.0
  0
XRECORD
  5
899
102
{ACAD_REACTORS
330
87C
102
}
330
87C
100
AcDbXrecord
 10
0.0
 20
0.0
 30
0.0
  0
XRECORD
  5
89A
102
{ACAD_REACTORS
330
87C
102
}
330
87C
100
AcDbXrecord
 10
0.0
 20
0.0
 30
0.0
  0
XRECORD
  5
89B
102
{ACAD_REACTORS
330
87C
102
}
330
87C
100
AcDbXrecord
 10
0.0
 20
0.0
 30
0.0
  0
ENDSEC
  0
EOF
